Пригоди Тінтіна: Таємниця єдинорога / The Adventures of Tintin: The Secret of the Unicorn (2011) [Open Matte] 1080p Ukr/Eng | Sub Eng

Нові коментарі

Нова тема   Відповісти
Автор Повідомлення
Alukret 
Свій


З нами з: 11.06.14
Востаннє: 08.03.21
Повідомлень: 111

2020-09-22 12:15  
Пригоди Тінтіна: Таємниця єдинорога / The Adventures of Tintin: The Secret of the Unicorn (2011) [Open Matte] 1080p Ukr/Eng | Sub Eng

Пригоди Тінтіна: Таємниця єдинорога / The Adventures of Tintin: The Secret of the Unicorn (2011) [Open Matte] 1080p Ukr/Eng | Sub Eng


Жанр: анімація, комедія, пригоди
Країна: США, Нова Зеландія, Бельгія



Кінокомпанія: Columbia Pictures, Paramount Pictures, Amblin Entertainment
Режисер: Стівен Спілберг
Актори: Джеймі Белл (Jamie Bell), Деніел Крейг (Daniel Craig), Саймон Пегг (Simon Pegg), Кері Елвіс (Cary Elwes), Енді Серкіс (Andy Serkis), Нік Фрост(Nick Frost), Маккензі Крук (Mackenzie Crook) та інші.

Сюжет:
Неймовірний дует Стівена Спілберга та Пітера Джексона поєднав режисерські таланти та сучасні технології зйомок для того, щоб найреальніше відтворити пригоди легендарного репортера, майстра у розгадуванні загадок та спеціаліста у потрапляння в різноманітні історії, славетного Тінтіна. Попереду таємниця, розгадка якої обіцяє відкрити небачені скарби, та це не головне, адже небезпека та пригоди – ось заради чого він подорожує.


Тривалість: 01:46:50
Якість:
Відео:
кодек:
розмір кадру: 1920 х 1080
бітрейт: 4809 кб/с
примітка: локалізований відеоряд був замінений на 00:01:38, 00:03:32, 00:09:04

Аудіо # 1:
мова: українська
переклад: професійний дубльований
кодек: AC-3 5.1
бітрейт: 640 кб/с

Аудіо # 2:
мова: англійська
переклад: оригінал
кодек: 5.1
бітрейт: 1536 кб/с

Аудіо # 3:
мова: англійська
переклад: оригінал
кодек: AC-3 5.1
бітрейт: 448 кб/с

Субтитри (Full):
мова: англійська
тип: програмні (м'які)
формат: *.srt
Порівняння кадрів Open Matte 16:9 (1.78:1) та Blu-Ray (2.39:1)



Info
Код:
General
Unique ID                                : 166954613557516907438478085588384758634 (0x7D9A49F94F14DABC95B5F0C7F5E03B6A)
Complete name                            : The Adventures of Tintin (2011) [Open Matte] 1080p [UKR_ENG] [Hurtom].
Format                                   :
Format version                           : Version 4
File size                                : 5.53 GiB
Duration                                 : 1 h 46 min
Overall bit rate                         : 7 409 kb/s
Movie name                               : The Adventures of Tintin (2011) [Open Matte] 1080p [UKR_ENG] [Hurtom]
Encoded date                             : UTC 2020-09-22 09:53:17
Writing application                      : v44.0.0 ('Domino') 64-bit
Writing library                          : libebml v1.3.10 + v1.5.2
Cover                                    : Yes
Attachments                              : cover.jpg

Video
ID                                       : 1
Format                                   : AVC
Format/Info                              : Advanced Video Codec
Format profile                           : [email protected]
Format settings                          : CABAC / 4 Ref Frames
Format settings, CABAC                   : Yes
Format settings, Reference frames        : 4 frames
Codec ID                                 : V_MPEG4/ISO/AVC
Duration                                 : 1 h 46 min
Bit rate                                 : 4 809 kb/s
Width                                    : 1 920 pixels
Height                                   : 1 080 pixels
Display aspect ratio                     : 16:9
Frame rate mode                          : Constant
Frame rate                               : 23.976 (24000/1001) FPS
Color space                              : YUV
Chroma subsampling                       : 4:2:0
Bit depth                                : 8 bits
Scan type                                : Progressive
Bits/(Pixel*Frame)                       : 0.097
Stream size                              : 3.59 GiB (65%)
Title                                    : AVC / 1080p / 4809 kbps
Default                                  : Yes
Forced                                   : No
Color range                              : Limited
Color primaries                          : BT.709
Transfer characteristics                 : BT.709
Matrix coefficients                      : BT.709

Audio #1
ID                                       : 2
Format                                   : AC-3
Format/Info                              : Audio Coding 3
Commercial name                          : Dolby Digital
Codec ID                                 : A_AC3
Duration                                 : 1 h 46 min
Bit rate mode                            : Constant
Bit rate                                 : 640 kb/s
Channel(s)                               : 6 channels
Channel layout                           : L R C LFE Ls Rs
Sampling rate                            : 48.0 kHz
Frame rate                               : 31.250 FPS (1536 SPF)
Bit depth                                : 16 bits
Compression mode                         : Lossy
Stream size                              : 489 MiB (9%)
Title                                    : AC-3 / 5.1 / 640 kbps / DUB / Blu-Ray
Language                                 : Ukrainian
Service kind                             : Complete Main
Default                                  : Yes
Forced                                   : No

Audio #2
ID                                       : 3
Format                                   :
Format/Info                              : Digital Theater Systems
Codec ID                                 : A_DTS
Duration                                 : 1 h 46 min
Bit rate mode                            : Constant
Bit rate                                 : 1 509 kb/s
Channel(s)                               : 6 channels
Channel layout                           : C L R Ls Rs LFE
Sampling rate                            : 48.0 kHz
Frame rate                               : 93.750 FPS (512 SPF)
Bit depth                                : 16 bits
Compression mode                         : Lossy
Stream size                              : 1.13 GiB (20%)
Title                                    : / 5.1 / 1536 kbps
Language                                 : English
Default                                  : No
Forced                                   : No

Audio #3
ID                                       : 4
Format                                   : AC-3
Format/Info                              : Audio Coding 3
Commercial name                          : Dolby Digital
Codec ID                                 : A_AC3
Duration                                 : 1 h 46 min
Bit rate mode                            : Constant
Bit rate                                 : 448 kb/s
Channel(s)                               : 6 channels
Channel layout                           : L R C LFE Ls Rs
Sampling rate                            : 48.0 kHz
Frame rate                               : 31.250 FPS (1536 SPF)
Bit depth                                : 16 bits
Compression mode                         : Lossy
Stream size                              : 342 MiB (6%)
Title                                    : AC-3 / 5.1 / 448 kbps
Language                                 : English
Service kind                             : Complete Main
Default                                  : No
Forced                                   : No

Text
ID                                       : 5
Format                                   : UTF-8
Codec ID                                 : S_TEXT/UTF8
Codec ID/Info                            : UTF-8 Plain Text
Duration                                 : 1 h 36 min
Bit rate                                 : 53 b/s
Count of elements                        : 1179
Stream size                              : 37.5 KiB (0%)
Title                                    : Full
Language                                 : English
Default                                  : No
Forced                                   : No

Menu
00:00:00.000                             : en:00:00:00.000
00:05:39.297                             : en:00:05:39.297
00:12:12.315                             : en:00:12:12.315
00:17:11.364                             : en:00:17:11.364
00:25:36.869                             : en:00:25:36.869
00:32:37.581                             : en:00:32:37.581
00:37:55.315                             : en:00:37:55.315
00:42:29.839                             : en:00:42:29.839
00:50:52.508                             : en:00:50:52.508
00:56:27.217                             : en:00:56:27.217
01:02:19.611                             : en:01:02:19.611
01:11:58.981                             : en:01:11:58.981
01:20:03.966                             : en:01:20:03.966
01:27:30.996                             : en:01:27:30.996
01:34:12.814                             : en:01:34:12.814
01:40:30.483                             : en:01:40:30.483

Скріншоти


Джерело: Rutor.info &
Особиста оцінка: 10 - без зайвих вагань рекомендую всім!


 Трекер:    Зареєстрований   

Завантажити / скачати мультфільм українською



відео для новачків



 Зареєстрований:   2020-09-22 12:15
 Розмір:   5.53 GB 
 Оцінка мультфільму:   10/10 (Голосів: 6)
   
Pasha909 
Новенький


З нами з: 27.01.20
Востаннє: 08.03.21
Повідомлень: 21

2020-09-22 17:46  
i навiщо цей мультфiльм обрiзали нерозумiю
Alukret 
Свій


З нами з: 11.06.14
Востаннє: 08.03.21
Повідомлень: 111

2020-09-22 19:25  
Pasha909 написано:
i навiщо цей мультфiльм обрiзали нерозумiю

Адаптація під кінотеатри, але це — повний треш, я згоден.

І-р 
Свій


З нами з: 21.07.16
Востаннє: 07.03.21
Повідомлень: 145

2020-09-22 20:01  
Pasha909 написано:
i навiщо цей мультфiльм обрiзали нерозумiю

Тут же 1920х1080. Чи Ви про інші релізи говорите?

Uwe 
Свій


З нами з: 04.09.20
Востаннє: 08.03.21
Повідомлень: 97

2020-09-22 20:17  
Таке враження, що фільм дивишся, а не мультик. Дуже коруто
Nahalist 
VIP


З нами з: 12.12.13
Востаннє: 07.03.21
Повідомлень: 340

2020-09-22 22:05  
Uwe написано:
Таке враження, що фільм дивишся, а не мультик. Дуже коруто

так, я коли дивився, то балдів від крутості, жаль продовження затягують
І-р написано:
Тут же 1920х1080. Чи Ви про інші релізи говорите?

скоріш за все про версію 2.35:1, я теж за те, щоб на блюриках випускали 16:9, а в кт хай як хотять, хоть навіть як оно Мерзенна Вісімка. Там якщо на кінескопному дивитися, то це капец, 50% екрану чорне о_О Бо гірше, ніж 2.35:1

Ваш часовий пояс: GMT + 2 Години

Нова тема   Відповісти