Кохані / The Loved Ones (2009) 1080p Eng | Sub Ukr

Нові коментарі

Нова тема   Відповісти
Автор Повідомлення
Anonymous 







2020-09-21 21:37  
Кохані / The Loved Ones (2009) 1080p Eng | Sub Ukr


Альтернативні постери:





Жанр: жахи, трилер
Країна: Австралія



Кінокомпанія: Screen Australia, Omnilab Media, Ambience Entertainment
Режисер: Шон Бірн
Актори: Ксав'єр Семюель, Робін МакЛіві, Джон Брамптон, Річард Вілсон, Вікторія Тейн, Джессіка Мак-Немі

Сюжет:
Коли Брент відмовляє однокласниці Лолі піти з нею на випускний, вона не засмучується і підмовляє свого психопата татуся викрасти Брента, аби влаштувати власний випускний, з тортурами і купою трупів.

Тривалість: 01:24:05
Якість: 1080p

Відео:
Кодек:
Розмір кадру: 1920 х 800
Бітрейт: 14.2 Мбіт/с

Аудіо #1:
Мова: англійська
Переклад: Оригінал
Кодек: 5.1
Бітрейт: 1509 Кбіт/с

Субтитри #1:
Мова: українська | Повні
Тип: програмні (м'які)
Формат: *.srt
Переклад: [SubAutumn]

Субтитри #2:
Мова: англійська | Повні
Тип: програмні (м'які)
Формат: *.srt

Info


General
Unique ID : 132849669129524802460994659980740967262 (0x63F1EA63F71B6082BE933159754CBB5E)
Format :
Format version : Version 4
File size : 9.24 GiB
Duration : 1 h 24 min
Overall bit rate : 15.7 Mb/s
Movie name : Кохані / The Loved Ones (2009) 1080p [SubUkrEng] [Hurtom]
Encoded date : UTC 2020-09-21 19:39:35
Writing application : v50.0.0 ('Awakenings') 64-bit
Writing library : libebml v1.4.0 + v1.6.2
Attachments : poster_eng1.jpg / poster_eng2.jpg

Video
ID : 1
Format : AVC
Format/Info : Advanced Video Codec
Format profile : [email protected]
Format settings : CABAC / 5 Ref Frames
Format settings, CABAC : Yes
Format settings, Reference fra : 5 frames
Codec ID : V_MPEG4/ISO/AVC
Duration : 1 h 24 min
Bit rate : 14.2 Mb/s
Width : 1 920 pixels
Height : 800 pixels
Display aspect ratio : 2.40:1
Frame rate mode : Constant
Frame rate : 24.000 FPS
Color space : YUV
Chroma subsampling : 4:2:0
Bit depth : 8 bits
Scan type : Progressive
Bits/(Pixel*Frame) : 0.386
Stream size : 8.35 GiB (90%)
Title : The Loved Ones (2009) 1080p
Writing library : core 157 r2935 545de2f
Encoding settings : cabac=1 / ref=5 / deblock=1:-3:-3 / analyse=0x3:0x133 / me=umh / subme=10 / psy=1 / psy_rd=1.00:0.00 / mixed_ref=1 / me_range=24 / chroma_me=1 / trellis=2 / 8x8dct=1 / cqm=0 / deadzone=21,11 / fast_pskip=0 / chroma_qp_offset=-2 / threads=18 / lookahead_threads=3 / sliced_threads=0 / nr=0 / decimate=1 / interlaced=0 / bluray_compat=0 / constrained_intra=0 / bframes=8 / b_pyramid=2 / b_adapt=2 / b_bias=0 / direct=3 / weightb=1 / open_gop=0 / weightp=2 / keyint=240 / keyint_min=24 / scenecut=40 / intra_refresh=0 / rc_lookahead=60 / rc=crf / mbtree=1 / crf=14.0 / qcomp=0.60 / qpmin=0 / qpmax=69 / qpstep=4 / vbv_maxrate=62500 / vbv_bufsize=78125 / crf_max=0.0 / nal_hrd=none / filler=0 / ip_ratio=1.40 / aq=1:1.00
Language : English
Default : Yes
Forced : No
Color range : Limited
Color primaries : BT.709
Transfer characteristics : BT.709
Matrix coefficients : BT.709

Audio
ID : 2
Format :
Format/Info : Digital Theater Systems
Codec ID : A_DTS
Duration : 1 h 24 min
Bit rate mode : Constant
Bit rate : 1 509 kb/s
Channel(s) : 6 channels
Channel layout : C L R Ls Rs LFE
Sampling rate : 48.0 kHz
Frame rate : 93.750 FPS (512 SPF)
Bit depth : 24 bits
Compression mode : Lossy
Stream size : 908 MiB (10%)
Title : [Оригінал] 5.1 @ 1509 Кбіт/с
Language : English
Default : Yes
Forced : No

Text #1
ID : 3
Format : UTF-8
Codec ID : S_TEXT/UTF8
Codec ID/Info : UTF-8 Plain Text
Duration : 1 h 17 min
Bit rate : 19 b/s
Count of elements : 296
Stream size : 11.0 KiB (0%)
Title : Повні [SubAutumn]
Language : Ukrainian
Default : Yes
Forced : No

Text #2
ID : 4
Format : UTF-8
Codec ID : S_TEXT/UTF8
Codec ID/Info : UTF-8 Plain Text
Duration : 1 h 12 min
Bit rate : 20 b/s
Count of elements : 424
Stream size : 10.7 KiB (0%)
Title : Повні
Language : English
Default : No
Forced : No
Скріншоти








Джерело:


Золотий реліз (завантажене не впливає на рейтинг)
 Трекер:    Зареєстрований   

Завантажити / скачати фільм українською



відео для новачків



 Зареєстрований:   2020-09-21 21:59
 Розмір:   9.24 GB 
 Оцінка фільму:   7.8/10 (Голосів: 8)
   
Ваш часовий пояс: GMT + 2 Години

Нова тема   Відповісти