Парамедик / El practicante (2020) AVC Eng/Spa | sub Ukr/Eng/Spa/Pol/Ron

Нові коментарі

Нова тема   Відповісти
Останній раз роздавалося kostyatest (2020-11-28)
Автор Повідомлення
Anonymous 







2020-09-21 16:56  
Парамедик / El practicante (2020) AVC Eng/Spa | sub Ukr/Eng/Spa/Pol/Ron

Парамедик / El practicante (2020) AVC Eng/Spa | sub Ukr/Eng/Spa/Pol/Ron


Жанр: трилер, драма
Країна: Іспанія



Кінокомпанія: Babieka, Netflix, Zabriskie Films
Режисер: Карлос Торраса
Актори: Маріо Касас, Дебора Франсуа, Гільєрмо пфенінг, Сельсо бугалу, Рауль Хіменес, Марія Родрігез Сото, Поль Монтаньєс, Вісента Н'Донго

Сюжет:
Опинившись в інвалідному візку, працівник швидкої допомоги Анхель стає одержимий дівчиною, яка йому не байдужа.


Тривалість: 01:34:28
Якість: AVC
Відео:
кодек:
розмір кадру: 1024 x 512
бітрейт: 991 кб/с

Аудіо # 1:
мова: англійська
переклад: професійний дубльований
кодек: 5.1
бітрейт: 384 кб/с

Аудіо # 2:
мова: iспанська
переклад: оригінал
кодек: 5.1
бітрейт: 384 кб/с

Субтитри:
мова: українська
тип: програмні (м'які)
формат: *.srt

Субтитри:
мова: англійська
тип: програмні (м'які)
формат: *.srt

Субтитри:
мова: iспанська
тип: програмні (м'які)
формат: *.srt

Субтитри:
мова: польська
тип: програмні (м'які)
формат: *.srt

Субтитри:
мова: румунська
тип: програмні (м'які)
формат: *.srt

Дякую Killer2015 за укр. саби
Info
Код:
General
Unique ID                                : 189121247442558158347228791090844759972 (0x8E476D6743D7F9DBBD07D4977ADF77A4)
Complete name                            : The paramedic (2020) AVC [ENG_UKR Sub] [Hurtom].
Format                                   :
Format version                           : Version 4
File size                                : 1.16 GiB
Duration                                 : 1 h 34 min
Overall bit rate                         : 1 764 kb/s
Movie name                               : Парамедик / El practicante / The Paramedic (2020)
Encoded date                             : UTC 2020-09-21 14:48:32
Writing application                      : v8.3.0 ('Over the Horizon') 64bit
Writing library                          : libebml v1.3.1 + v1.4.2
Cover                                    : Yes
Attachments                              : Cover.jpg

Video
ID                                       : 1
Format                                   : AVC
Format/Info                              : Advanced Video Codec
Format profile                           : [email protected]
Format settings                          : CABAC / 10 Ref Frames
Format settings, CABAC                   : Yes
Format settings, ReFrames                : 10 frames
Codec ID                                 : V_MPEG4/ISO/AVC
Duration                                 : 1 h 34 min
Bit rate                                 : 991 kb/s
Width                                    : 1 024 pixels
Height                                   : 512 pixels
Display aspect ratio                     : 2.000
Frame rate mode                          : Constant
Frame rate                               : 25.000 FPS
Color space                              : YUV
Chroma subsampling                       : 4:2:0
Bit depth                                : 8 bits
Scan type                                : Progressive
Bits/(Pixel*Frame)                       : 0.076
Stream size                              : 670 MiB (56%)
Title                                    : Neo_Men for Hurtom
Writing library                          : core 161 r3018 db0d417
Encoding settings                        : cabac=1 / ref=10 / deblock=1:-3:-3 / analyse=0x3:0x133 / me=umh / subme=10 / psy=1 / psy_rd=1.00:0.00 / mixed_ref=1 / me_range=32 / chroma_me=1 / trellis=2 / 8x8dct=1 / cqm=0 / deadzone=21,11 / fast_pskip=1 / chroma_qp_offset=-2 / threads=6 / lookahead_threads=1 / sliced_threads=0 / nr=0 / decimate=1 / interlaced=0 / bluray_compat=0 / constrained_intra=0 / bframes=10 / b_pyramid=2 / b_adapt=2 / b_bias=0 / direct=1 / weightb=1 / open_gop=0 / weightp=2 / keyint=250 / keyint_min=25 / scenecut=40 / intra_refresh=0 / rc=crf / mbtree=0 / crf=18.5 / qcomp=0.60 / qpmin=0 / qpmax=69 / qpstep=4 / ip_ratio=1.40 / pb_ratio=1.30 / aq=3:0.80
Language                                 : English
Default                                  : Yes
Forced                                   : No
Color range                              : Limited
Color primaries                          : BT.709
Transfer characteristics                 : BT.709
Matrix coefficients                      : BT.709

Audio #1
ID                                       : 2
Format                                   : AC-3
Format/Info                              : Audio Coding 3
Commercial name                          : Dolby Digital
Codec ID                                 : A_AC3
Duration                                 : 1 h 34 min
Bit rate mode                            : Constant
Bit rate                                 : 384 kb/s
Channel(s)                               : 6 channels
Channel layout                           : L R C LFE Ls Rs
Sampling rate                            : 48.0 kHz
Frame rate                               : 31.250 FPS (1536 SPF)
Bit depth                                : 16 bits
Compression mode                         : Lossy
Stream size                              : 259 MiB (22%)
Language                                 : English
Service kind                             : Complete Main
Default                                  : Yes
Forced                                   : No

Audio #2
ID                                       : 3
Format                                   : AC-3
Format/Info                              : Audio Coding 3
Commercial name                          : Dolby Digital
Codec ID                                 : A_AC3
Duration                                 : 1 h 34 min
Bit rate mode                            : Constant
Bit rate                                 : 384 kb/s
Channel(s)                               : 6 channels
Channel layout                           : L R C LFE Ls Rs
Sampling rate                            : 48.0 kHz
Frame rate                               : 31.250 FPS (1536 SPF)
Bit depth                                : 16 bits
Compression mode                         : Lossy
Stream size                              : 259 MiB (22%)
Language                                 : Spanish
Service kind                             : Complete Main
Default                                  : No
Forced                                   : No

Text #1
ID                                       : 4
Format                                   : UTF-8
Codec ID                                 : S_TEXT/UTF8
Codec ID/Info                            : UTF-8 Plain Text
Duration                                 : 1 h 29 min
Bit rate                                 : 43 b/s
Count of elements                        : 701
Stream size                              : 28.2 KiB (0%)
Title                                    : Full
Language                                 : Ukrainian
Default                                  : Yes
Forced                                   : Yes

Text #2
ID                                       : 5
Format                                   : UTF-8
Codec ID                                 : S_TEXT/UTF8
Codec ID/Info                            : UTF-8 Plain Text
Duration                                 : 1 h 29 min
Bit rate                                 : 3 b/s
Count of elements                        : 65
Stream size                              : 2.03 KiB (0%)
Title                                    : Forced
Language                                 : English
Default                                  : No
Forced                                   : No

Text #3
ID                                       : 6
Format                                   : UTF-8
Codec ID                                 : S_TEXT/UTF8
Codec ID/Info                            : UTF-8 Plain Text
Duration                                 : 1 h 29 min
Bit rate                                 : 29 b/s
Count of elements                        : 714
Stream size                              : 19.3 KiB (0%)
Title                                    : Full
Language                                 : English
Default                                  : No
Forced                                   : No

Text #4
ID                                       : 7
Format                                   : UTF-8
Codec ID                                 : S_TEXT/UTF8
Codec ID/Info                            : UTF-8 Plain Text
Duration                                 : 1 h 30 min
Bit rate                                 : 45 b/s
Count of elements                        : 1206
Stream size                              : 30.0 KiB (0%)
Title                                    : SDH
Language                                 : English
Default                                  : No
Forced                                   : No

Text #5
ID                                       : 8
Format                                   : UTF-8
Codec ID                                 : S_TEXT/UTF8
Codec ID/Info                            : UTF-8 Plain Text
Duration                                 : 1 h 16 min
Bit rate                                 : 1 b/s
Count of elements                        : 29
Stream size                              : 971 Bytes (0%)
Title                                    : European (Forced)
Language                                 : Spanish
Default                                  : No
Forced                                   : No

Text #6
ID                                       : 9
Format                                   : UTF-8
Codec ID                                 : S_TEXT/UTF8
Codec ID/Info                            : UTF-8 Plain Text
Duration                                 : 1 h 30 min
Bit rate                                 : 40 b/s
Count of elements                        : 957
Stream size                              : 26.5 KiB (0%)
Title                                    : European (SDH)
Language                                 : Spanish
Default                                  : No
Forced                                   : No

Text #7
ID                                       : 10
Format                                   : UTF-8
Codec ID                                 : S_TEXT/UTF8
Codec ID/Info                            : UTF-8 Plain Text
Duration                                 : 1 h 33 min
Bit rate                                 : 24 b/s
Count of elements                        : 734
Stream size                              : 16.7 KiB (0%)
Title                                    : Full
Language                                 : Polish
Default                                  : No
Forced                                   : No

Text #8
ID                                       : 11
Format                                   : UTF-8
Codec ID                                 : S_TEXT/UTF8
Codec ID/Info                            : UTF-8 Plain Text
Duration                                 : 1 h 30 min
Bit rate                                 : 30 b/s
Count of elements                        : 702
Stream size                              : 20.2 KiB (0%)
Title                                    : Full
Language                                 : Romanian
Default                                  : No
Forced                                   : No
Скріншоти




Джерело:
Особиста оцінка: 0 - не дивився


 Трекер:    Зареєстрований   

Завантажити / скачати фільм українською



відео для новачків



 Зареєстрований:   2020-09-21 16:56
 Розмір:   1.16 GB 
 Оцінка фільму:   7/10 (Голосів: 3)
   
Інші релізи
11FrYkT 
Модератор відео


З нами з: 20.02.11
Востаннє: 29.11.20
Повідомлень: 7037

2020-09-22 11:43  
Neo_Men написано:

Аудіо # 1:
мова: англійська
переклад: професійний дубльований
кодек: 5.1
бітрейт: 384 кб/с

Залишаю у вигляді виключення

Ваш часовий пояс: GMT + 2 Години

Нова тема   Відповісти