Парамедик / El practicante (2020) 1080p Eng/Spa | sub Ukr/Eng/Spa/Pol/Ron

Нові коментарі

Нова тема   Відповісти
Автор Повідомлення
Anonymous 







2020-09-21 11:10  
Парамедик / El practicante (2020) 1080p Eng/Spa | sub Ukr/Eng/Spa/Pol/Ron

Парамедик / El practicante (2020) 1080p Eng/Spa | sub Ukr/Eng/Spa/Pol/Ron


Жанр: трилер, драма
Країна: Іспанія



Кінокомпанія: Babieka, Netflix, Zabriskie Films
Режисер: Карлос Торраса
Актори: Маріо Касас, Дебора Франсуа, Гільєрмо пфенінг, Сельсо бугалу, Рауль Хіменес, Марія Родрігез Сото, Поль Монтаньєс, Вісента Н'Донго

Сюжет:
Опинившись в інвалідному візку, працівник швидкої допомоги Анхель стає одержимий дівчиною, яка йому не байдужа.


Тривалість: 01:34:28
Якість: WEB- DL 1080p
Відео:
кодек:
розмір кадру: 1920 x 1080
бітрейт: 3188 кб/с

Аудіо # 1:
мова: англійська
переклад: професійний дубльований
кодек: E- 5.1
бітрейт: 640 кб/с

Аудіо # 2:
мова: iспанська
переклад: оригінал
кодек: E- 5.1
бітрейт: 640 кб/с

Субтитри:
мова: українська
тип: програмні (м'які)
формат: *.srt

Субтитри:
мова: англійська
тип: програмні (м'які)
формат: *.srt

Субтитри:
мова: iспанська
тип: програмні (м'які)
формат: *.srt

Субтитри:
мова: польська
тип: програмні (м'які)
формат: *.srt

Субтитри:
мова: румунська
тип: програмні (м'які)
формат: *.srt

Дякую Killer2015 за укр. саби
Info
Код:
General
Unique ID                                : 252850803213784823733314607506764033346 (0xBE394B18253796D0BF2BE886220B6D42)
Complete name                            : The paramedic (2020) 1080p [ENG_UKR Sub] [Hurtom].
Format                                   :
Format version                           : Version 4
File size                                : 2.95 GiB
Duration                                 : 1 h 34 min
Overall bit rate mode                    : Variable
Overall bit rate                         : 4 470 kb/s
Movie name                               : Парамедик / El practicante / The Paramedic (2020)
Encoded date                             : UTC 2020-09-21 08:51:05
Writing application                      : v8.3.0 ('Over the Horizon') 64bit
Writing library                          : libebml v1.3.1 + v1.4.2
Cover                                    : Yes
Attachments                              : Cover.jpg

Video
ID                                       : 1
Format                                   : AVC
Format/Info                              : Advanced Video Codec
Format profile                           : [email protected]
Format settings                          : CABAC / 4 Ref Frames
Format settings, CABAC                   : Yes
Format settings, ReFrames                : 4 frames
Codec ID                                 : V_MPEG4/ISO/AVC
Duration                                 : 1 h 34 min
Bit rate mode                            : Variable
Bit rate                                 : 3 188 kb/s
Maximum bit rate                         : 20.0 Mb/s
Width                                    : 1 920 pixels
Height                                   : 1 080 pixels
Display aspect ratio                     : 16:9
Frame rate mode                          : Constant
Frame rate                               : 25.000 FPS
Color space                              : YUV
Chroma subsampling                       : 4:2:0
Bit depth                                : 8 bits
Scan type                                : Progressive
Bits/(Pixel*Frame)                       : 0.061
Stream size                              : 2.10 GiB (71%)
Title                                    : Neo_Men for Hurtom
Writing library                          : core 148 r2722 1b0121b
Encoding settings                        : cabac=1 / ref=4 / deblock=1:0:0 / analyse=0x3:0x111 / me=umh / subme=10 / psy=1 / psy_rd=1.00:0.00 / mixed_ref=1 / me_range=120 / chroma_me=1 / trellis=2 / 8x8dct=1 / cqm=0 / deadzone=21,11 / fast_pskip=1 / chroma_qp_offset=-2 / threads=8 / lookahead_threads=2 / sliced_threads=0 / nr=0 / decimate=1 / interlaced=0 / bluray_compat=0 / stitchable=1 / constrained_intra=0 / bframes=16 / b_pyramid=2 / b_adapt=2 / b_bias=0 / direct=3 / weightb=1 / open_gop=0 / weightp=2 / keyint=250 / keyint_min=126 / scenecut=0 / intra_refresh=0 / rc_lookahead=250 / rc=crf / mbtree=1 / crf=16.0 / qcomp=0.50 / qpmin=6 / qpmax=51 / qpstep=4 / vbv_maxrate=20000 / vbv_bufsize=25000 / crf_max=0.0 / nal_hrd=vbr / filler=0 / ip_ratio=1.40 / aq=1:0.80
Default                                  : Yes
Forced                                   : No

Audio #1
ID                                       : 2
Format                                   : E-AC-3
Format/Info                              : Enhanced AC-3
Commercial name                          : Dolby Digital Plus
Codec ID                                 : A_EAC3
Duration                                 : 1 h 34 min
Bit rate mode                            : Constant
Bit rate                                 : 640 kb/s
Channel(s)                               : 6 channels
Channel layout                           : L R C LFE Ls Rs
Sampling rate                            : 48.0 kHz
Frame rate                               : 31.250 FPS (1536 SPF)
Compression mode                         : Lossy
Stream size                              : 432 MiB (14%)
Language                                 : English
Service kind                             : Complete Main
Default                                  : Yes
Forced                                   : No

Audio #2
ID                                       : 3
Format                                   : E-AC-3
Format/Info                              : Enhanced AC-3
Commercial name                          : Dolby Digital Plus
Codec ID                                 : A_EAC3
Duration                                 : 1 h 34 min
Bit rate mode                            : Constant
Bit rate                                 : 640 kb/s
Channel(s)                               : 6 channels
Channel layout                           : L R C LFE Ls Rs
Sampling rate                            : 48.0 kHz
Frame rate                               : 31.250 FPS (1536 SPF)
Compression mode                         : Lossy
Stream size                              : 432 MiB (14%)
Language                                 : Spanish
Service kind                             : Complete Main
Default                                  : No
Forced                                   : No

Text #1
ID                                       : 4
Format                                   : UTF-8
Codec ID                                 : S_TEXT/UTF8
Codec ID/Info                            : UTF-8 Plain Text
Duration                                 : 1 h 29 min
Bit rate                                 : 43 b/s
Count of elements                        : 702
Stream size                              : 28.2 KiB (0%)
Title                                    : Full
Language                                 : Ukrainian
Default                                  : Yes
Forced                                   : Yes

Text #2
ID                                       : 5
Format                                   : UTF-8
Codec ID                                 : S_TEXT/UTF8
Codec ID/Info                            : UTF-8 Plain Text
Duration                                 : 1 h 29 min
Bit rate                                 : 3 b/s
Count of elements                        : 65
Stream size                              : 2.03 KiB (0%)
Title                                    : Forced
Language                                 : English
Default                                  : No
Forced                                   : No

Text #3
ID                                       : 6
Format                                   : UTF-8
Codec ID                                 : S_TEXT/UTF8
Codec ID/Info                            : UTF-8 Plain Text
Duration                                 : 1 h 29 min
Bit rate                                 : 29 b/s
Count of elements                        : 714
Stream size                              : 19.3 KiB (0%)
Title                                    : Full
Language                                 : English
Default                                  : No
Forced                                   : No

Text #4
ID                                       : 7
Format                                   : UTF-8
Codec ID                                 : S_TEXT/UTF8
Codec ID/Info                            : UTF-8 Plain Text
Duration                                 : 1 h 30 min
Bit rate                                 : 45 b/s
Count of elements                        : 1206
Stream size                              : 30.0 KiB (0%)
Title                                    : SDH
Language                                 : English
Default                                  : No
Forced                                   : No

Text #5
ID                                       : 8
Format                                   : UTF-8
Codec ID                                 : S_TEXT/UTF8
Codec ID/Info                            : UTF-8 Plain Text
Duration                                 : 1 h 16 min
Bit rate                                 : 1 b/s
Count of elements                        : 29
Stream size                              : 971 Bytes (0%)
Title                                    : European (Forced)
Language                                 : Spanish
Default                                  : No
Forced                                   : No

Text #6
ID                                       : 9
Format                                   : UTF-8
Codec ID                                 : S_TEXT/UTF8
Codec ID/Info                            : UTF-8 Plain Text
Duration                                 : 1 h 30 min
Bit rate                                 : 40 b/s
Count of elements                        : 957
Stream size                              : 26.5 KiB (0%)
Title                                    : European (SDH)
Language                                 : Spanish
Default                                  : No
Forced                                   : No

Text #7
ID                                       : 10
Format                                   : UTF-8
Codec ID                                 : S_TEXT/UTF8
Codec ID/Info                            : UTF-8 Plain Text
Duration                                 : 1 h 33 min
Bit rate                                 : 24 b/s
Count of elements                        : 734
Stream size                              : 16.7 KiB (0%)
Title                                    : Full
Language                                 : Polish
Default                                  : No
Forced                                   : No

Text #8
ID                                       : 11
Format                                   : UTF-8
Codec ID                                 : S_TEXT/UTF8
Codec ID/Info                            : UTF-8 Plain Text
Duration                                 : 1 h 30 min
Bit rate                                 : 30 b/s
Count of elements                        : 702
Stream size                              : 20.2 KiB (0%)
Title                                    : Full
Language                                 : Romanian
Default                                  : No
Forced                                   : No
Скріншоти




Джерело:
Особиста оцінка: 0 - не дивився


 Трекер:    Зареєстрований   

Завантажити / скачати фільм українською



відео для новачків



 Зареєстрований:   2020-09-21 11:10
 Розмір:   2.95 GB 
 Оцінка фільму:   10/10 (Голосів: 3)
   
Інші релізи
   Парамедик / El practicante (2020) AVC Eng/Spa | sub Ukr/Eng/Spa/Pol/Ron Neo_Men  1 / 1   1.16 GB   2020-09-21 16:56 
   Парамедик / El practicante (2020) Spa | sub Ukr killer2015  0 / 0   1.33 GB   2020-09-19 10:29 
11FrYkT 
Модератор відео


З нами з: 20.02.11
Востаннє: 04.12.20
Повідомлень: 7051

2020-09-22 11:44  
Neo_Men написано:

Аудіо # 1:
мова: англійська
переклад: професійний дубльований
кодек: E- 5.1
бітрейт: 640 кб/с

досить 1 виключення, тому забирайте доріжку

Ваш часовий пояс: GMT + 2 Години

Нова тема   Відповісти