Чемпіонат Англії 2020/21 | Саутгемптон - Тоттенгем | 2 тур | Setanta Sports (20.09.2020) 720p

Нові коментарі

Нова тема   Відповісти
Останній раз роздавалося misamisk (2020-10-20)
Автор Повідомлення
misamisk 
Частий відвідувач


З нами з: 16.10.17
Востаннє: 22.10.20
Повідомлень: 34

2020-09-21 10:56  
Чемпіонат Англії 2020/21 | Саутгемптон - Тоттенгем | 2 тур | Setanta Sports (20.09.2020) 720p

Чемпіонат Англії 2020/21 | Саутгемптон - Тоттенгем | 2 тур | Setanta Sports (20.09.2020) 720p


Телеканал: Setanta Sports Ukraine
Опис:
Матч відбувся 20 вересня 2020 року у Саутгемптоні на стадіоні "Сент-Меріс"

Матч обслуговували:

Рефері: Девід Кут
Асистенти рефері: Гаррі Ленард, Ніколас Гоптон
Четвертий арбітр: Кіт Страуд
VAR: Кріс Кавана
Асистент VAR: Річард Вест

Коментатор: Дмитро Джулай


Тривалість: 01:48:36
Якість:
Відео:
кодек:
розмір кадру: 1280 x 720
бітрейт: 4000 кб/с

Аудіо:
мова: українська
переклад: оригінал
кодек: 2.0
бітрейт: 320 кб/с
Стартові склади
Скріншоти
Info
General
Unique ID : 117883122090358087928451708954190574525 (0x58AF76A6708DC05AF71AE58D354473BD)
Complete name : /Users/misha.yaremenko/Movies/EPL.Matchday2.Southampton-Tottenham.Hotspur.20.09.2020..
Format :
Format version : Version 4
File size : 3.28 GiB
Duration : 1 h 48 min
Overall bit rate mode : Variable
Overall bit rate : 4 323 kb/s
Movie name : EPL Matchday 2. Southampton - Tottenham Hotspur
Encoded date : UTC 2020-09-21 07:20:44
Writing application : v24.0.0 ('Beyond The Pale') 64-bit
Writing library : libebml v1.3.6 + v1.4.9

Video
ID : 1
Format : AVC
Format/Info : Advanced Video Codec
Format profile : [email protected]
Format settings : CABAC / 2 Ref Frames
Format settings, CABAC : Yes
Format settings, Reference frames : 2 frames
Format settings, GOP : M=1, N=25
Codec ID : V_MPEG4/ISO/AVC
Duration : 1 h 48 min
Bit rate mode : Variable
Bit rate : 4 000 kb/s
Maximum bit rate : 768 kb/s
Width : 1 280 pixels
Height : 720 pixels
Display aspect ratio : 16:9
Frame rate mode : Constant
Frame rate : 29.970 (30000/1001) FPS
Original frame rate : 25.000 FPS
Color space : YUV
Chroma subsampling : 4:2:0
Bit depth : 8 bits
Scan type : Progressive
Bits/(Pixel*Frame) : 0.145
Stream size : 3.03 GiB (93%)
Title : Southampton - Tottenham
Language : Ukrainian
Default : Yes
Forced : No

Audio
ID : 2
Format : LC
Format/Info : Advanced Audio Codec Low Complexity
Codec ID : A_AAC-2
Duration : 1 h 48 min
Bit rate : 320 kb/s
Channel(s) : 2 channels
Channel layout : L R
Sampling rate : 44.1 kHz
Frame rate : 43.066 FPS (1024 SPF)
Compression mode : Lossy
Stream size : 249 MiB (7%)
Title : Commentaries by Dmytro Dzhulay
Language : Ukrainian
Default : Yes
Forced : No
Особиста оцінка: 8 - мені сподобалося
Час роздачі: Понеділок-п'ятниця - з 16:00 до 21:00, субота-неділя - з 10:00 до 21:00
Роздаю до 5 жовтня у зв'язку з недостатньою кількістю місця на жорсткому диску


Золотий реліз (завантажене не впливає на рейтинг)
 Трекер:    Зареєстрований   

Завантажити / скачати торрент



відео для новачків



 Зареєстрований:   2020-09-21 10:56
 Розмір:   3.28 GB 
 Оцінка:   10/10 (Голосів: 1)
   
misamisk 
Частий відвідувач


З нами з: 16.10.17
Востаннє: 22.10.20
Повідомлень: 34

2020-09-21 15:49  
Планую далі записати наступні матчі:

Другий тур

Понеділок, 21 вересня
  • 17:40 - повтор матчу Челсі - Ліверпуль (без інфографіки зі статистикою першого тайму і найкращих моментів)
  • 20:00 - Астон Вілла - Шеффілд Юнайтед (під питанням)

Третій тур

Неділя, 23 вересня

  • 14:00 - Шеффілд Юнайтед - Лідс Юнайтед
  • 16:00 - Тоттенгем - Ньюкасл Юнайтед
  • 18:30 - Манчестер Сіті - Лестер Сіті

Понеділок, 24 вересня

  • 20:00 - Фулгем - Астон Вілла (під питанням)


Сподіваюся, я витримаю записати таку кількість матчів і викласти їх на трекер вчасно. Що ж, уперед! Чекаємо на третій тур!

antik_2008 
Релізер і модератор відео


З нами з: 20.10.08
Востаннє: 23.10.20
Повідомлень: 4204

2020-09-21 21:28  
Як опитування робили , так краще зробити тему де анонси будуть
misamisk 
Частий відвідувач


З нами з: 16.10.17
Востаннє: 22.10.20
Повідомлень: 34

2020-09-21 21:48  
antik_2008
Єдине - там де опитування знаходиться зараз, його мало хто побачить, думаю. Усі зразу переходять у підрозділ, як-от у "Закордонні чемпіонати" чи "Авто, мото" Я тему з анонса и зроблю, але у розділі "Закордонні чемпіонати"

Ваш часовий пояс: GMT + 2 Години

Нова тема   Відповісти