Фріки: Ти один з нас / Freaks: You're One of Us (2020) 720p Ger | sub Ukr

Нові коментарі

Нова тема   Відповісти
Автор Повідомлення
killer2015 
Поважний учасник


З нами з: 30.01.15
Востаннє: 24.11.20
Повідомлень: 187

2020-09-20 16:22  
Фріки: Ти один з нас / Freaks: You're One of Us (2020) 720p Ger | sub Ukr

Фріки: Ти один з нас / Freaks: You're One of Us (2020) 720p Ger | sub Ukr


Жанр: Фантастика, фентезі, бойовик, драма
Країна: Німеччина



Кінокомпанія: Netflix, ZDF
Режисер: Фелікс Біндер
Актори: Фіннлі Бергер, Тельма Буабенг, Гіза Флаке, Корнелія Грёшель, Ральф Херфорт, Ніна Кунцендорф, Фредерік Лінкеманн, Тім Олівер Шульц, Вотан Вільке Мерінг

Сюжет:
Венді - проста кухарка з робітничого класу. Одного разу вона виявила у себе надздібності, які придушувалися через застосування ліків, а також дізнається, що в світі є інші власники схожоъ сили. Більш того, новоспеченим супергероїв тепер потрібно розплутати глобальну змову.


Тривалість: 01:32:40
Якість: 720p
Відео:
кодек:
розмір кадру: 1280x720
бітрейт: 1 780 кб/с

Аудіо:
мова: німецька
переклад: оригінал
кодек: 5.1
бітрейт: 640 кб/с

Субтитри:
мова: українська (редагований переклад Killer2015)
тип: програмні (м'які)
формат: *.srt
МІ
General
Unique ID : 68575971099933627466233005380456417490 (0x3397406A367DD22B8173949FE7C408D2)
Complete name : G:\Фільми\Freaks.Youre.One.of.Us.2020.720p.NF.WEBRip_Eng_Sub_Ukr\Freaks.Youre.One.of.Us.2020.720p.NF..
Format :
Format version : Version 4
File size : 1.54 GiB
Duration : 1 h 32 min
Overall bit rate mode : Variable
Overall bit rate : 2 375 kb/s
Encoded date : UTC 2020-09-20 13:03:15
Writing application : v47.0.0 ('Black Flag') 64-bit
Writing library : libebml v1.3.10 + v1.5.2

Video
ID : 1
Format : AVC
Format/Info : Advanced Video Codec
Format profile : [email protected]
Format settings : CABAC / 3 Ref Frames
Format settings, CABAC : Yes
Format settings, Reference frames : 3 frames
Codec ID : V_MPEG4/ISO/AVC
Duration : 1 h 32 min
Bit rate mode : Variable
Bit rate : 1 780 kb/s
Maximum bit rate : 2 670 kb/s
Width : 1 280 pixels
Height : 720 pixels
Display aspect ratio : 16:9
Frame rate mode : Constant
Frame rate : 25.000 FPS
Color space : YUV
Chroma subsampling : 4:2:0
Bit depth : 8 bits
Scan type : Progressive
Bits/(Pixel*Frame) : 0.077
Stream size : 1.12 GiB (73%)
Writing library : core 148 r2722 1b0121b
Encoding settings : cabac=1 / ref=3 / deblock=1:0:0 / analyse=0x1:0x111 / me=umh / subme=10 / psy=1 / psy_rd=1.00:0.00 / mixed_ref=1 / me_range=24 / chroma_me=1 / trellis=2 / 8x8dct=0 / cqm=0 / deadzone=21,11 / fast_pskip=1 / chroma_qp_offset=-2 / threads=8 / lookahead_threads=1 / sliced_threads=0 / nr=0 / decimate=1 / interlaced=0 / bluray_compat=0 / stitchable=1 / constrained_intra=0 / bframes=2 / b_pyramid=0 / b_adapt=2 / b_bias=0 / direct=3 / weightb=1 / open_gop=0 / weightp=2 / keyint=250 / keyint_min=25 / scenecut=0 / intra_refresh=0 / rc_lookahead=50 / rc=2pass / mbtree=1 / bitrate=1780 / ratetol=1.0 / qcomp=0.50 / qpmin=6 / qpmax=51 / qpstep=4 / cplxblur=20.0 / qblur=0.5 / vbv_maxrate=2670 / vbv_bufsize=3560 / nal_hrd=vbr / filler=0 / ip_ratio=1.40 / aq=1:1.00
Language : German
Default : Yes
Forced : No

Audio
ID : 2
Format : AC-3
Format/Info : Audio Coding 3
Commercial name : Dolby Digital
Codec ID : A_AC3
Duration : 1 h 32 min
Bit rate mode : Constant
Bit rate : 640 kb/s
Channel(s) : 6 channels
Channel layout : L R C LFE Ls Rs
Sampling rate : 48.0 kHz
Frame rate : 31.250 FPS (1536 SPF)
Compression mode : Lossy
Stream size : 424 MiB (27%)
Language : German
Service kind : Complete Main
Default : No
Forced : No
Скріншоти






Золотий реліз (завантажене не впливає на рейтинг)
 Трекер:    Зареєстрований   

Завантажити / скачати фільм українською



відео для новачків



 Зареєстрований:   2020-09-20 16:22
 Розмір:   1.54 GB 
 Оцінка фільму:   10/10 (Голосів: 5)
   
killer2015 
Поважний учасник


З нами з: 30.01.15
Востаннє: 24.11.20
Повідомлень: 187

2020-09-20 16:23  

wolesj 
VIP


З нами з: 15.07.12
Востаннє: 24.11.20
Повідомлень: 953

2020-09-20 18:39  
killer2015 написано:
Венді - проста кухарка з робітничого класу.


А буде щось про шефиню-шляхтянку?

Ваш часовий пояс: GMT + 2 Години

Нова тема   Відповісти