Непокора / Disobedience (2017) 1080p H.265 Eng | Sub Ukr/Eng

Нові коментарі

Нова тема   Відповісти
Автор Повідомлення
Anonymous 







2020-09-20 11:27  
Непокора / Disobedience (2017) 1080p H.265 Eng | Sub Ukr/Eng

Непокора / Disobedience (2017) 1080p H.265 Eng | Sub Ukr/Eng


Жанр: драма, мелодрама
Країна: Ірландія, Великобританія, США
Кінокомпанія: Braven Films, Element Pictures, Film 4, Stage 6 Films
Режисер: Себастіан Леліо
Актори: Рейчел МакАдамс, Рейчел Вайз, Ентон Лессер, Алессандро Нівола, Аллан Кордунер, Ніколас Вудесон, Девід Флішман, Стів Ферст, Тревор Аллан Дейвіс, Софіа Браун, Ентоні Даудінг

Сюжет:
Проживши останні роки у Нью-Йорку і ввібравши його бурхливі звичаї, вона була вільна в дії і бунтівна духом, проте смерть батька, шанованого всіма рабина, змусила Роніт повернутися в рідний Хендон і зануритися в звичне життя ортодоксального єврейського будинку. Зустріч з подругою дитинства, а нині дружиною свого кузена, несподівано змушує тремтіти її серце, народжуючи ніжне почуття. Шокуюча новина швидко розлітається по консервативно налаштованій єврейській громаді...

Тривалість: 01:54:39
Якість: (Власний Rip)

Відео:
кодек: H.265 (HEVC)
розмір кадру: 1920 x 804
бітрейт: 5 420 кб/с
бітова глибина: 10 біт

Увага! Перед завантаженням переконайтесь, що ваш пристрій відтворення (та/або ПЗ) підтримує H.265 (HEVC)

Аудіо # 1:
мова: англійська
переклад: оригінал
кодек: 5.1
бітрейт: 1510 кб/с

Субтитри # 1: (Full from Netflix)
мова: українська
тип: програмні (м'які)
формат: *.srt

Субтитри # 2-3: (Full, SDH)
мова: англійська
тип: програмні (м'які)
формат: *.srt

Субтитри # 4: (Full)
мова: іспанська
тип: програмні (м'які)
формат: *.srt


Info
Код:
General
Unique ID                                : 43709944947304439688592773641365128974 (0x20E23AABD00A6744E33DDB4A7EE8870E)
Complete name                            : Disobedience (2017) 1080p H.265 [ENG] [Hurtom].
Format                                   :
Format version                           : Version 4
File size                                : 5.55 GiB
Duration                                 : 1 h 54 min
Overall bit rate                         : 6 934 kb/s
Movie name                               : Непокора / Disobedience (2017)
Encoded date                             : UTC 2020-09-20 09:05:18
Writing application                      : v20.0.0 ('I Am The Sun') 64-bit
Writing library                          : libebml v1.3.5 + v1.4.8
Cover                                    : Yes
Attachments                              : Cover

Video
ID                                       : 1
Format                                   : HEVC
Format/Info                              : High Efficiency Video Coding
Format profile                           : Main [email protected]@High
Codec ID                                 : V_MPEGH/ISO/HEVC
Duration                                 : 1 h 54 min
Bit rate                                 : 5 420 kb/s
Width                                    : 1 920 pixels
Height                                   : 804 pixels
Display aspect ratio                     : 2.40:1
Frame rate mode                          : Constant
Frame rate                               : 23.976 (24000/1001) FPS
Color space                              : YUV
Chroma subsampling                       : 4:2:0
Bit depth                                : 10 bits
Bits/(Pixel*Frame)                       : 0.146
Stream size                              : 4.34 GiB (78%)
Title                                    : Непокора / Disobedience (2017)
Writing library                          : x265 3.2+5-354901970679:[Windows][clang 8.0.1][64 bit] 10bit
Encoding settings                        : cpuid=1111039 / frame-threads=13 / numa-pools=12 / wpp / no-pmode / no-pme / no-psnr / no-ssim / log-level=3 / input-csp=1 / input-res=1920x804 / interlace=0 / total-frames=0 / level-idc=51 / high-tier=1 / uhd-bd=0 / ref=5 / allow-non-conformance / no-repeat-headers / annexb / no-aud / no-hrd / info / hash=0 / no-temporal-layers / open-gop / min-keyint=24 / keyint=240 / gop-lookahead=0 / bframes=16 / b-adapt=2 / b-pyramid / bframe-bias=0 / rc-lookahead=60 / lookahead-slices=5 / scenecut=40 / radl=0 / no-splice / no-intra-refresh / ctu=64 / min-cu-size=8 / rect / amp / max-tu-size=32 / tu-inter-depth=4 / tu-intra-depth=4 / limit-tu=0 / rdoq-level=2 / dynamic-rd=0.00 / no-ssim-rd / signhide / no-tskip / nr-intra=0 / nr-inter=0 / no-constrained-intra / no-strong-intra-smoothing / max-merge=3 / limit-refs=1 / no-limit-modes / me=3 / subme=7 / merange=57 / temporal-mvp / no-frame-dup / no-hme / weightp / weightb / no-analyze-src-pics / deblock=-3:-3 / no-sao / no-sao-non-deblock / rd=6 / selective-sao=0 / early-skip / rskip / no-fast-intra / no-tskip-fast / no-cu-lossless / b-intra / no-splitrd-skip / rdpenalty=0 / psy-rd=2.00 / psy-rdoq=1.00 / no-rd-refine / no-lossless / cbqpoffs=0 / crqpoffs=0 / rc=crf / crf=20.0 / qcomp=0.65 / qpstep=4 / stats-write=0 / stats-read=0 / vbv-maxrate=50000 / vbv-bufsize=50000 / vbv-init=0.9 / crf-max=30.0 / crf-min=0.0 / ipratio=1.40 / pbratio=1.30 / aq-mode=1 / aq-strength=1.00 / no-cutree / zone-count=0 / no-strict-cbr / qg-size=32 / no-rc-grain / qpmax=69 / qpmin=0 / no-const-vbv / sar=1 / overscan=0 / videoformat=5 / range=0 / colorprim=2 / transfer=2 / colormatrix=2 / chromaloc=0 / display-window=0 / cll=0,0 / min-luma=0 / max-luma=1023 / log2-max-poc-lsb=8 / vui-timing-info / vui-hrd-info / slices=1 / no-opt-qp-pps / no-opt-ref-list-length-pps / no-multi-pass-opt-rps / scenecut-bias=0.05 / no-opt-cu-delta-qp / no-aq-motion / no-hdr / no-hdr-opt / no-dhdr10-opt / no-idr-recovery-sei / analysis-reuse-level=5 / scale-factor=0 / refine-intra=0 / refine-inter=0 / refine-mv=1 / refine-ctu-distortion=0 / no-limit-sao / ctu-info=0 / no-lowpass-dct / refine-analysis-type=0 / copy-pic=1 / max-ausize-factor=1.0 / no-dynamic-refine / no-single-sei / no-hevc-aq / no-svt / no-field / qp-adaptation-range=1.00
Language                                 : English
Default                                  : Yes
Forced                                   : No
Color range                              : Limited

Audio
ID                                       : 2
Format                                   :
Format/Info                              : Digital Theater Systems
Codec ID                                 : A_DTS
Duration                                 : 1 h 54 min
Bit rate mode                            : Constant
Bit rate                                 : 1 509 kb/s
Channel(s)                               : 6 channels
Channel layout                           : C L R Ls Rs LFE
Sampling rate                            : 48.0 kHz
Frame rate                               : 93.750 FPS (512 SPF)
Bit depth                                : 24 bits
Compression mode                         : Lossy
Stream size                              : 1.21 GiB (22%)
Title                                    : / 5.1 Ch / 1509 kbps / Original
Language                                 : English
Default                                  : No
Forced                                   : No

Text #1
ID                                       : 3
Format                                   : UTF-8
Codec ID                                 : S_TEXT/UTF8
Codec ID/Info                            : UTF-8 Plain Text
Duration                                 : 1 h 53 min
Bit rate                                 : 39 b/s
Count of elements                        : 817
Stream size                              : 32.9 KiB (0%)
Title                                    : Full from Netflix
Language                                 : Ukrainian
Default                                  : Yes
Forced                                   : Yes

Text #2
ID                                       : 4
Format                                   : UTF-8
Codec ID                                 : S_TEXT/UTF8
Codec ID/Info                            : UTF-8 Plain Text
Duration                                 : 1 h 47 min
Bit rate                                 : 28 b/s
Count of elements                        : 884
Stream size                              : 22.5 KiB (0%)
Title                                    : Full
Language                                 : English
Default                                  : No
Forced                                   : No

Text #3
ID                                       : 5
Format                                   : UTF-8
Codec ID                                 : S_TEXT/UTF8
Codec ID/Info                            : UTF-8 Plain Text
Duration                                 : 1 h 51 min
Bit rate                                 : 32 b/s
Count of elements                        : 1053
Stream size                              : 26.4 KiB (0%)
Title                                    : SDH
Language                                 : English
Default                                  : No
Forced                                   : No

Text #4
ID                                       : 6
Format                                   : UTF-8
Codec ID                                 : S_TEXT/UTF8
Codec ID/Info                            : UTF-8 Plain Text
Duration                                 : 1 h 53 min
Bit rate                                 : 27 b/s
Count of elements                        : 853
Stream size                              : 22.4 KiB (0%)
Title                                    : Full
Language                                 : Spanish
Default                                  : No
Forced                                   : No

Menu
00:00:00.000                             : :Chapter 01
00:03:43.014                             : :Chapter 02
00:09:09.591                             : :Chapter 03
00:16:38.998                             : :Chapter 04
00:21:25.618                             : :Chapter 05
00:25:31.655                             : :Chapter 06
00:28:41.303                             : :Chapter 07
00:36:43.785                             : :Chapter 08
00:41:19.894                             : :Chapter 09
00:50:03.375                             : :Chapter 10
00:57:51.093                             : :Chapter 11
01:02:46.179                             : :Chapter 12
01:10:34.229                             : :Chapter 13
01:17:28.727                             : :Chapter 14
01:20:28.949                             : :Chapter 15
01:25:35.339                             : :Chapter 16
01:31:59.472                             : :Chapter 17
01:37:21.711                             : :Chapter 18
01:44:02.820                             : :Chapter 19
01:49:47.247                             : :Chapter 20
Світлини




Джерело: &
Особиста оцінка: 0 - не дивився

Подяка пану leicheman за надані укр. субтитри.


 Трекер:    Зареєстрований   

Завантажити / скачати фільм українською



відео для новачків



 Зареєстрований:   2020-09-20 11:28
 Розмір:   5.55 GB 
 Оцінка фільму:   4.9/10 (Голосів: 7)
   
rakab 
Свій


З нами з: 02.08.09
Востаннє: 28.11.20
Повідомлень: 96

2020-09-20 23:08  
Гарний фільм, є на Нетфлікс. Можна дивитись, якщо цікаво, як живуть ортодоксальні євреї в сучасному Лондоні.

"Зустріч з подругою дитинства" - скоріше із забутим коханням Happy

bot 
робот


З нами з: 30.09.07
Востаннє: 26.05.05
Повідомлень: 26447

2020-09-22 10:19  
Тему перенесено з Фільми в HD до форуму Фільми


-Star-Lord-

Ваш часовий пояс: GMT + 2 Години

Нова тема   Відповісти