Чемпіонат Англії 2020/21 | Лідс Юнайтед - Фулгем | 2 тур | Setanta Sports (19.09.2020) 720p

Нові коментарі

Нова тема   Відповісти
Останній раз роздавалося misamisk (2020-10-20)
Автор Повідомлення
misamisk 
Частий відвідувач


З нами з: 16.10.17
Востаннє: 22.10.20
Повідомлень: 34

2020-09-20 11:54  
Чемпіонат Англії 2020/21 | Лідс Юнайтед - Фулгем | 2 тур | Setanta Sports (19.09.2020) 720p

Чемпіонат Англії 2020/21 | Лідс Юнайтед - Фулгем | 2 тур | Setanta Sports (19.09.2020) 720p


Телеканал: Setanta Sports Ukraine
Опис:
Матч другого туру Англійської Прем'єр-Ліги між "Лідс Юнайтед" та "Фулгемом" відбувся 19 серпня 2020 року на стадіоні "Еланд Роуд" у місті Лідс.

Матч обслуговували:

Рефері: Ентоні Тейлор
Асистенти рефері: Гарі Безвік, Адам Нанн
Четвертий суддя: Кевін Френд
VAR: Стюарт Етвелл
Асистент VAR: Константін Хатзідакіс

Коментатор: Юрій Кириченко


Тривалість: 01:48:19
Якість:
Відео:
кодек:
розмір кадру: 1280 x 720
бітрейт: 4000 кб/с

Аудіо:
мова: українська
кодек: 2.0
бітрейт: 320 кб/с
Стартові склади
Info
General
Unique ID : 186044473688639342962869494372348056073 (0x8BF6DCBECE6254F52BB0BBF56C89D209)
Complete name : EPL.Matchday2.Leeds.United-Fulham.19.09.2020..
Format :
Format version : Version 4
File size : 3.27 GiB
Duration : 1 h 48 min
Overall bit rate mode : Variable
Overall bit rate : 4 325 kb/s
Movie name : Leeds United - Fulham
Encoded date : UTC 2020-09-20 08:19:27
Writing application : v24.0.0 ('Beyond The Pale') 64-bit
Writing library : libebml v1.3.6 + v1.4.9 / Lavf58.12.100

Video
ID : 1
Format : AVC
Format/Info : Advanced Video Codec
Format profile : [email protected]
Format settings : CABAC / 2 Ref Frames
Format settings, CABAC : Yes
Format settings, Reference frames : 2 frames
Format settings, GOP : M=1, N=25
Codec ID : V_MPEG4/ISO/AVC
Duration : 1 h 48 min
Bit rate mode : Variable
Bit rate : 4 000 kb/s
Maximum bit rate : 768 kb/s
Width : 1 280 pixels
Height : 720 pixels
Display aspect ratio : 16:9
Frame rate mode : Constant
Frame rate : 29.970 (30000/1001) FPS
Original frame rate : 25.000 FPS
Color space : YUV
Chroma subsampling : 4:2:0
Bit depth : 8 bits
Scan type : Progressive
Bits/(Pixel*Frame) : 0.145
Stream size : 3.03 GiB (92%)
Title : Leeds United - Fulham
Language : Ukrainian
Default : Yes
Forced : No

Audio
ID : 2
Format : LC
Format/Info : Advanced Audio Codec Low Complexity
Codec ID : A_AAC-2
Duration : 1 h 48 min
Bit rate : 320 kb/s
Channel(s) : 2 channels
Channel layout : L R
Sampling rate : 44.1 kHz
Frame rate : 43.066 FPS (1024 SPF)
Compression mode : Lossy
Stream size : 248 MiB (7%)
Title : Commentaries by Yuriy Kyrychenko
Language : Ukrainian
Default : Yes
Forced : No
Скріншоти
Особиста оцінка: 10 - без зайвих вагань рекомендую всім!
Час роздачі: Понеділок-п'ятниця - з 16:00 до 21:00, субота-неділя - з 10:00 до 21:00
Роздаю до 4 жовтня у зв'язку з недостатньою кількістю місця на жорсткому диску


Золотий реліз (завантажене не впливає на рейтинг)
 Трекер:    Зареєстрований   

Завантажити / скачати торрент



відео для новачків



 Зареєстрований:   2020-09-20 11:54
 Розмір:   3.27 GB 
 Оцінка:   10/10 (Голосів: 3)
   
antik_2008 
Релізер і модератор відео


З нами з: 20.10.08
Востаннє: 23.10.20
Повідомлень: 4204

2020-09-21 13:45  
misamisk Дякую! Гарний матч.
misamisk 
Частий відвідувач


З нами з: 16.10.17
Востаннє: 22.10.20
Повідомлень: 34

2020-09-21 14:01  
antik_2008
Особливо мені сподобалася кінцівка, такого непередбачуваного футболу я давно не бачив.
Чекаю на повтор матчу "Челсі - Ліверпуль", що буде о 17:40, думаю, що там матч вийшов не гірше.

Ваш часовий пояс: GMT + 2 Години

Нова тема   Відповісти