Загублене місто (2015) 1080p

Нові коментарі

Нова тема   Відповісти
Автор Повідомлення
sergiyko.5 
Забанено
Забанено


З нами з: 25.02.16
Востаннє: 29.10.20
Повідомлень: 3648

2020-09-19 21:56  
Загублене місто (2015) 1080p


Загублене місто (2015) 1080p

Жанр: фантастика, драма, трилер
Країна: Україна
Кінокомпанія: Студія "Дебют" і Національна кіностудія ім. О. Довженка на замовлення Державного агентства України з питань кіно
Режисер: Віталій Потрух
Актори: Андрій Джеджула, Ірина Новак, Сергій Романюк, Дмитро Лінартович, Костянтин Лінартович

Сюжет:
Результатом невдалого експерименту стала техногенна катастрофа, наслідки якої лишаються невивченими. У зоні відчуження з’являються лише мародери. Звичайні люди в цій місцевості дивним чином зникають. Головні герої картини – мрійливий мародер, жінка, що втратила сім’ю та засуджений суспільством науковець – волею обставин опиняються у незвичайному місті з власними законами. Чи можна втекти від долі? Що робити, коли твій світ змінився назавжди?






Якщо Ви бажаєте підтримати українське - після перегляду, придбайте його ліцензійний перегляд.
Підтримаймо вітчизняне кіно!



Тривалість: 01:37:22
Якість:

Відео: кодек: розмір кадру: 1920 х 1080 бітрейт: 4500 кб/с
Аудіо: мова: українська озвучення: оригінал кодек: 5.1 бітрейт: 256 кб/с
Про файл:
General
Unique ID : 148620118881043535626992027696398248030 (0x6FCF31983B9D62C2A3E928B89912A85E)
Complete name : D:\Documents\Torrents\Загублене місто.2015.1080p..
Format :
Format version : Version 4
File size : 3.25 GiB
Duration : 1 h 37 min
Overall bit rate mode : Variable
Overall bit rate : 4 775 kb/s
Movie name : rip by sergiyko
Encoded date : UTC 2020-09-19 19:53:35
Writing application : v49.0.0 ('Sick Of Losing Soulmates') 64-bit
Writing library : libebml v1.4.0 + v1.6.1
Cover : Yes
Attachments : cover.jpeg

Video
ID : 1
Format : AVC
Format/Info : Advanced Video Codec
Format profile : [email protected]
Format settings : CABAC / 1 Ref Frames
Format settings, CABAC : Yes
Format settings, Reference : 1 frame
Codec ID : V_MPEG4/ISO/AVC
Duration : 1 h 37 min
Bit rate mode : Variable
Bit rate : 4 516 kb/s
Maximum bit rate : 13.5 Mb/s
Width : 1 920 pixels
Height : 1 080 pixels
Display aspect ratio : 16:9
Frame rate mode : Constant
Frame rate : 29.970 (30000/1001) FPS
Color space : YUV
Chroma subsampling : 4:2:0
Bit depth : 8 bits
Scan type : Progressive
Bits/(Pixel*Frame) : 0.073
Stream size : 3.07 GiB (95%)
Language : Ukrainian
Default : Yes
Forced : No

Audio
ID : 2
Format : LC
Format/Info : Advanced Audio Codec Low Complexity
Codec ID : A_AAC-2
Duration : 1 h 37 min
Bit rate : 256 kb/s
Channel(s) : 6 channels
Channel layout : C L R Ls Rs LFE
Sampling rate : 44.1 kHz
Frame rate : 43.066 FPS (1024 SPF)
Compression mode : Lossy
Stream size : 178 MiB (5%)
Title : Original 5.1ch 256kbps
Language : Ukrainian
Default : Yes
Forced : No
Скріншоти:


Реліз: sergiyko


Золотий реліз (завантажене не впливає на рейтинг)
 Трекер:    Зареєстрований   

Завантажити / скачати український фільм



відео для новачків



 Зареєстрований:   2020-09-19 21:56
 Розмір:   3.25 GB 
 Оцінка фільму:   8.2/10 (Голосів: 20)
   
Ваш часовий пояс: GMT + 2 Години

Нова тема   Відповісти