Американський огірочок / An American Pickle (2020) 720p Eng | sub Ukr

Нові коментарі

Нова тема   Відповісти
Автор Повідомлення
killer2015 
Поважний учасник


З нами з: 30.01.15
Востаннє: 26.11.20
Повідомлень: 191

2020-09-19 18:46  
Американський огірочок / An American Pickle (2020) 720p Eng | sub Ukr

Американський огірочок / An American Pickle (2020) 720p Eng | sub Ukr


Жанр: комедія
Країна: США



Кінокомпанія: Sony Pictures Entertainment, HBO Max
Режисер: Брендан Трост
Актори: Сет Роґен, Сара Снук, Йорма Такконе, Чарльз Роджерс, Пол Кастро мол., Джеффрі Деніел Філліпс

Сюжет:
У 1920-х роках Гершель Ґрінбаум, роботяга з непростим життям, прибуває до Америки в пошуках кращої долі для себе та своєї сім'ї. Якось, працюючи на фабриці, він падає в бочку зі солоними огірками, де залишається маринуватися впродовж 100 років. Розсіл зберігає його в ідеальному стані – коли він приходить до тями в сучасному Брукліні, то з'ясовує, що геть не постарів. Чоловік вирішує знайти свою родину, але з жахом дізнається, що його єдиний живий родич – праправнук Бен Ґрінбаум, скромний програміст, якого Гершелю ніколи не зрозуміти.


Тривалість: 01:28:26
Якість:
Відео: 720p
кодек:
розмір кадру: 1280x688
бітрейт: 4 000 кб/с

Аудіо:
мова: англійська
переклад: оригінал
кодек: 5.1
бітрейт: 384 кб/с

Субтитри:
мова: українська (редагований переклад Killer2015)
тип: програмні (м'які)
формат: *.srt
МІ
General
Unique ID : 89550635732655318036352401979599570488 (0x435ED339132ADFCCF00E9308DFFD4638)
Complete name : G:\Фільми\An American Pickle\An.American.Pickle.2020.720p.
Format :
Format version : Version 4
File size : 2.68 GiB
Duration : 1 h 28 min
Overall bit rate mode : Constant
Overall bit rate : 4 334 kb/s
Encoded date : UTC 2020-09-19 11:31:00
Writing application : v47.0.0 ('Black Flag') 64-bit
Writing library : libebml v1.3.10 + v1.5.2

Video
ID : 1
Format : AVC
Format/Info : Advanced Video Codec
Format profile : [email protected]
Format settings : CABAC / 1 Ref Frames
Format settings, CABAC : Yes
Format settings, Reference frames : 1 frame
Format settings, GOP : M=1, N=25
Codec ID : V_MPEG4/ISO/AVC
Duration : 1 h 28 min
Bit rate mode : Constant
Bit rate : 4 000 kb/s
Width : 1 280 pixels
Height : 688 pixels
Display aspect ratio : 1.85:1
Frame rate mode : Constant
Frame rate : 23.976 (24000/1001) FPS
Color space : YUV
Chroma subsampling : 4:2:0
Bit depth : 8 bits
Scan type : Progressive
Bits/(Pixel*Frame) : 0.189
Stream size : 2.44 GiB (91%)
Default : Yes
Forced : No

Audio
ID : 2
Format : AC-3
Format/Info : Audio Coding 3
Commercial name : Dolby Digital
Codec ID : A_AC3
Duration : 1 h 28 min
Bit rate mode : Constant
Bit rate : 384 kb/s
Channel(s) : 6 channels
Channel layout : L R C LFE Ls Rs
Sampling rate : 48.0 kHz
Frame rate : 31.250 FPS (1536 SPF)
Compression mode : Lossy
Stream size : 243 MiB (9%)
Title : English
Language : English
Service kind : Complete Main
Default : No
Forced : No
Скріншоти





Джерело:


Золотий реліз (завантажене не впливає на рейтинг)
 Трекер:    Зареєстрований   

Завантажити / скачати фільм українською



відео для новачків



 Зареєстрований:   2020-09-19 18:46
 Розмір:   2.68 GB 
 Оцінка фільму:   9.8/10 (Голосів: 5)
   
killer2015 
Поважний учасник


З нами з: 30.01.15
Востаннє: 26.11.20
Повідомлень: 191

2020-09-19 18:48  

Ваш часовий пояс: GMT + 2 Години

Нова тема   Відповісти