Слід (Сезон 1, 39 серії) (2019) 720p

Нові коментарі

Нова тема   Відповісти
Автор Повідомлення
sergiyko.5 
Забанено
Забанено


З нами з: 25.02.16
Востаннє: 29.10.20
Повідомлень: 3650

2020-09-19 13:20  
Слід (Сезон 1) (2019) 720p


Слід (Сезон 1, 39 серії) (2019) 720p

Жанр: детектив, кримінал
Країна: Україна
Кінокомпанія: СТБ
Режисер:
Актори: Тетяна Кравченко, Олексій Суровцев, Богдан Рубан, Ігор Волков, Оксана Борбат, Сергій Кияшко, Антоніна Хижняк

Сюжет:
Агентство ОСА (Особлива Слідча агенція) допомагає поліції розкривати найскладніші злочини. Зазвичай до них звертаються вже тоді, коли офіційне слідство вичерпує всі свої ресурси. Тоді звертаються до Ольги Косач – глави агентства ОСА. Його фахівці здатні розкрити будь-який злочин. Спецагенти використовують останні наукові розробки та новітні технології для проведення експертиз, після чого діляться отриманою інформацією з поліцією. ОСА оснащена власною лабораторією, де працюють вчені, а програмісти допомагають розслідувати злочини за допомогою алгоритмів.


Тривалість: 1 серія: 00:42:05 (цілком серій: 39 з xx)
Якість:

Відео: кодек: розмір кадру: 1280 х 720 бітрейт: 2500 кб/с
Аудіо: мова: українська озвучення: оригінал кодек: 2.0 бітрейт: 128 кб/с
Перелік серій
01-39 серії
Про файл:
General
Unique ID : 136753623367903247043833935760229075205 (0x66E1CA31F4C43F561FBD0DBDFB1F0905)
Complete name : D:\Documents\Torrents\Слід S01 720p \Слід.S01E01.720p..
Format :
Format version : Version 4
File size : 778 MiB
Duration : 42 min 7 s
Overall bit rate : 2 582 kb/s
Movie name : Слід S01 rip by sergiyko
Encoded date : UTC 2020-09-19 11:26:10
Writing application : v49.0.0 ('Sick Of Losing Soulmates') 64-bit
Writing library : libebml v1.4.0 + v1.6.1

Video
ID : 1
Format : AVC
Format/Info : Advanced Video Codec
Format profile : [email protected]
Format settings : CABAC / 5 Ref Frames
Format settings, CABAC : Yes
Format settings, Reference : 5 frames
Codec ID : V_MPEG4/ISO/AVC
Duration : 42 min 7 s
Bit rate : 2 452 kb/s
Width : 1 280 pixels
Height : 720 pixels
Display aspect ratio : 16:9
Frame rate mode : Constant
Frame rate : 25.000 FPS
Color space : YUV
Chroma subsampling : 4:2:0
Bit depth : 8 bits
Scan type : Progressive
Bits/(Pixel*Frame) : 0.106
Stream size : 739 MiB (95%)
Writing library : core 160
Encoding settings : cabac=1 / ref=5 / deblock=1:0:0 / analyse=0x3:0x113 / me=umh / subme=8 / psy=1 / psy_rd=1.00:0.00 / mixed_ref=1 / me_range=16 / chroma_me=1 / trellis=1 / 8x8dct=1 / cqm=0 / deadzone=21,11 / fast_pskip=1 / chroma_qp_offset=-2 / threads=22 / lookahead_threads=3 / sliced_threads=0 / nr=0 / decimate=1 / interlaced=0 / bluray_compat=0 / constrained_intra=0 / bframes=3 / b_pyramid=2 / b_adapt=2 / b_bias=0 / direct=3 / weightb=1 / open_gop=0 / weightp=2 / keyint=250 / keyint_min=25 / scenecut=40 / intra_refresh=0 / rc_lookahead=50 / rc=crf / mbtree=1 / crf=20.0 / qcomp=0.60 / qpmin=5 / qpmax=69 / qpstep=4 / ip_ratio=1.41 / aq=1:1.00
Language : Ukrainian
Default : Yes
Forced : No

Audio
ID : 2
Format : LC
Format/Info : Advanced Audio Codec Low Complexity
Codec ID : A_AAC-2
Duration : 42 min 7 s
Bit rate : 128 kb/s
Channel(s) : 2 channels
Channel layout : L R
Sampling rate : 48.0 kHz
Frame rate : 46.875 FPS (1024 SPF)
Compression mode : Lossy
Delay relative to video : -43 ms
Stream size : 38.6 MiB (5%)
Language : Ukrainian
Default : Yes
Forced : No
Скріншоти:


Запис: sergiyko


Золотий реліз (завантажене не впливає на рейтинг)
 Трекер:    Зареєстрований   

Завантажити / скачати український серіал



відео для новачків



 Зареєстрований:   2020-10-22 10:33
 Розмір:   28.07 GB 
 Оцінка серіалу:   8.1/10 (Голосів: 27)
   
antik_2008 
Релізер і модератор відео


З нами з: 20.10.08
Востаннє: 01.12.20
Повідомлень: 4385

2020-09-21 12:48  
sergiyko.5 Дякую! Подивимося Happy
fanat22012 
VIP


З нами з: 26.06.17
Востаннє: 02.12.20
Повідомлень: 666

2020-09-21 13:05  
Йой, скільки ж пафосу в тому постері))
sergiyko.5 
Забанено
Забанено


З нами з: 25.02.16
Востаннє: 29.10.20
Повідомлень: 3650

2020-09-25 09:49  
Додав 13-20 серії.
zaika 
VIP


З нами з: 01.07.12
Востаннє: 02.12.20
Повідомлень: 1243

2020-10-01 14:04  
Український детектив середньої якості. Необроєним оком видно вплив московитського кіно. В першій серії стільки звернень героїв до самих себе по імені і по батькові, що це просто визиває оскому. Пора вже затямити, що українці таку форму звертання застосовують вкрай рідко. До дитини звертаються - Міша. Ірини Фаріон на них немає. Звук якийсь неякісний. Дуже багато запозичень з американьського кіно. Загалом 6, ну
від сили 7/10.

sergiyko.5 
Забанено
Забанено


З нами з: 25.02.16
Востаннє: 29.10.20
Повідомлень: 3650

2020-10-02 21:57  
Додав 21-28 серії.
ser.lisak 
Свій


З нами з: 04.04.13
Востаннє: 02.12.20
Повідомлень: 85

2020-10-03 08:46  
А скільки серій в 1 сезоні?
AndriyIvanchenko 
Новенький


З нами з: 04.11.15
Востаннє: 01.12.20
Повідомлень: 22

2020-10-12 18:09  
Цитата:
До дитини звертаються - Міша. Ірини Фаріон на них немає.


Wide grin

AndriyIvanchenko 
Новенький


З нами з: 04.11.15
Востаннє: 01.12.20
Повідомлень: 22

2020-10-12 21:11  
Обережно! Суржик!
sergiyko.5 
Забанено
Забанено


З нами з: 25.02.16
Востаннє: 29.10.20
Повідомлень: 3650

2020-10-13 13:52  
Додав 29-33 серії.
volsh69 
Новенький


З нами з: 26.01.20
Востаннє: 01.12.20
Повідомлень: 9

2020-10-14 20:29  
ser.lisak
одна з акторок серіалу Антоніна Хижняк в шоу "Кондратюк у понеділок" на 5 каналі сказала що в першому сезоні 72 серії і почалися приготування до 2 сезону

ser.lisak 
Свій


З нами з: 04.04.13
Востаннє: 02.12.20
Повідомлень: 85

2020-10-15 19:03  
Дякую!

Додано через 3 хвилини 34 секунди:

Коли чекати нових серій. По ТБ вже 44 ? З повагою до Вашої праці!

sergiyko.5 
Забанено
Забанено


З нами з: 25.02.16
Востаннє: 29.10.20
Повідомлень: 3650

2020-10-15 20:23  
ser.lisak написано:
По ТБ вже 44

там де я беру серії, в наявності 34-36.

antik_2008 
Релізер і модератор відео


З нами з: 20.10.08
Востаннє: 01.12.20
Повідомлень: 4385

2020-10-21 21:29  
sergiyko.5 Коли наступні ?
sergiyko.5 
Забанено
Забанено


З нами з: 25.02.16
Востаннє: 29.10.20
Повідомлень: 3650

2020-10-22 10:34  
Додав 34-39 серії.
ser.lisak 
Свій


З нами з: 04.04.13
Востаннє: 02.12.20
Повідомлень: 85

2020-11-04 11:56  
Коли наступні ?
Masanchick 
Попереджень: 1
Попереджень: 1 


З нами з: 08.04.11
Востаннє: 02.12.20
Повідомлень: 619

2020-11-15 18:58  
Ваш часовий пояс: GMT + 2 Години

Нова тема   Відповісти