І будуть люди (Сезон 1) (2019) 1080p

Нові коментарі

Нова тема   Відповісти
Автор Повідомлення
sergiyko.5 
Забанено
Забанено


З нами з: 25.02.16
Востаннє: 29.10.20
Повідомлень: 3650

2020-09-18 18:43  
Всі одноіменні релізи на трекері

І будуть люди (Сезон 1) (2019) 1080p


І будуть люди (Сезон 1) (2019) 1080p

Жанр: сімейна сага, історична драма
Країна: Україна
Кінокомпанія: FILM.UA Group, СТБ
Режисер: Аркадій Непиталюк
Актори: Катерина Григоренко, Остап Дзядек, Акмал Гурєзов, Віктор Жданов, Олена Борозенець, Костянтин Темляк, Олександр Піскунов, Олександр Мавріц, Макар Тіхоміров, Анна Тамбова, Марина Кошкіна та ін.

Сюжет:
Серіал знятий за мотивами епохального роману Анатолія Дімарова «І будуть люди». Автори позиціонують стрічку як історичну сагу, де в центрі сюжету – звичайні люди, яких зненацька застали темні часи: Перша світова війна, революція та прихід радянської влади. У драмі 12 головних персонажів, які кохають, працюють і намагаються знайти своє місце у новому вимірі історії. У кожного героя серіалу «І будуть люди» своя правда, і всі вони по-різному реагують на турбулентні етапи та суспільні зміни. Проте є дещо, що їх об’єднує, – бажання жити.
Хоч епічна драма «І будуть люди» розповідає про людей, які жили ще 100 років тому, історична достовірність і актуальність подій зачепить за живе кожного глядача. У персонажах ми впізнаємо свої родини, рідних дідів-прадідів, які змогли вижити в нелюдських обставинах. Також укотре пригадаємо ті історичні події, які ніколи не можна забувати. Цей проєкт надзвичайно важливий для кожного українця, адже він дасть змогу краще зрозуміти свою природу та переоцінити сьогодення.


Тривалість: 1 серія 00:52:00 (цілком серій: 12 з 12)
Якість:

Відео: кодек: розмір кадру: 1920 х 1080 бітрейт: 3000 кб/с
Аудіо: мова: українська озвучення: оригінал кодек: 2.0 бітрейт: 128 кб/с

Примітка: серії довші за рахунок вставлених епізодів про попередню та наступну серії.
Перелік серій
01 Свирид і Олена
02 Тетяна
03 Ганжа – новий голова сільради Тарасівки
04 Гайдука засудили до смерті
05 Федір повертається до Тарасівки
06 Олеся дізнається правду про своє народження
07 Олег і Таня знову зустрілися
08 Замах на голову сільради
09 Ольга приїжджає до Тарасівки з інспекцією
10 Оксен рятує зерно
11 Гінзбург пише Сталіну
12 Голод і нова надія
Про файл:
General
Unique ID : 170118803923127584480062184718140122904 (0x7FFBB09A86D11536F4BBCB67C2B32718)
Complete name : D:\Documents\Torrents\І будуть люди S01 1080p \І будуть люди.S01E01.1080p..
Format :
Format version : Version 4
File size : 1 014 MiB
Duration : 51 min 57 s
Overall bit rate : 2 730 kb/s
Movie name : І будуть люди S01 1080p by sergiyko
Encoded date : UTC 2020-09-18 16:33:38
Writing application : v49.0.0 ('Sick Of Losing Soulmates') 64-bit
Writing library : libebml v1.4.0 + v1.6.1

Video
ID : 1
Format : AVC
Format/Info : Advanced Video Codec
Format profile : [email protected]
Format settings : CABAC / 3 Ref Frames
Format settings, CABAC : Yes
Format settings, Reference : 3 frames
Codec ID : V_MPEG4/ISO/AVC
Duration : 51 min 57 s
Bit rate : 2 599 kb/s
Width : 1 920 pixels
Height : 1 080 pixels
Display aspect ratio : 16:9
Frame rate mode : Constant
Frame rate : 25.000 FPS
Color space : YUV
Chroma subsampling : 4:2:0
Bit depth : 8 bits
Scan type : Progressive
Bits/(Pixel*Frame) : 0.050
Stream size : 966 MiB (95%)
Language : Ukrainian
Default : Yes
Forced : No
Color range : Limited
Color primaries : BT.709
Transfer characteristics : BT.709
Matrix coefficients : BT.709

Audio
ID : 2
Format : LC
Format/Info : Advanced Audio Codec Low Complexity
Codec ID : A_AAC-2
Duration : 51 min 57 s
Bit rate : 128 kb/s
Channel(s) : 2 channels
Channel layout : L R
Sampling rate : 44.1 kHz
Frame rate : 43.066 FPS (1024 SPF)
Compression mode : Lossy
Stream size : 47.6 MiB (5%)
Language : Ukrainian
Default : Yes
Forced : No
Скріншоти:


Запис: sergiyko


Золотий реліз (завантажене не впливає на рейтинг)
 Трекер:    Зареєстрований   

Завантажити / скачати український серіал



відео для новачків



 Зареєстрований:   2020-09-21 09:03
 Розмір:   11.15 GB 
 Оцінка серіалу:   9.6/10 (Голосів: 32)
   
sergiyko.5 
Забанено
Забанено


З нами з: 25.02.16
Востаннє: 29.10.20
Повідомлень: 3650

2020-09-21 09:05  
Додав серії до повного сезону. Приємного перегляду!
TenderPsycho 
Новенький


З нами з: 18.08.18
Востаннє: 12.10.20
Повідомлень: 1

2020-09-24 16:58  
Тяжкий, але такий чудовий серіал!
Аркадій Дзиґа 
VIP


З нами з: 09.10.14
Востаннє: 04.12.20
Повідомлень: 483

2020-09-24 20:09  
Давно чекав на цей серіял - дуже дякую!!! Тепер іще б з'явилася "Саґа" знята каналом "Україна" - чомусь Мені вони взаємоасоціюються...
sergiyko.5 
Забанено
Забанено


З нами з: 25.02.16
Востаннє: 29.10.20
Повідомлень: 3650

2020-09-24 23:47  
Аркадій Дзиґа
Стане доступним, зроблю реліз.

Варджра 
Новенький


З нами з: 28.03.17
Востаннє: 28.11.20
Повідомлень: 14

2020-10-01 09:01  
не поганий серіал, для загальної аудиторії, можна і потрібно дивитися. Такі серіали необхідно знімати в великому обсязі, щоб українці дивилися переважно своє
Аркадій Дзиґа 
VIP


З нами з: 09.10.14
Востаннє: 04.12.20
Повідомлень: 483

2020-10-01 23:55  
sergiyko.5
https://www.youtube.com/watch?v=qX5XY5GHHQo - велика прем'єра "Саґи" почнеться 5-го Жовтня Wink (2)

Eutihes 
Новенький


З нами з: 08.10.16
Востаннє: 29.11.20
Повідомлень: 6

2020-10-19 16:47  
Чудове кіно. Важка доля українського народу.
Bohonek 
Свій


З нами з: 21.12.12
Востаннє: 04.12.20
Повідомлень: 137

2020-11-09 18:23  
Питомо український серіал. Перші 4 серії бездоганні. Потім пішло трохи нудно і з недомовками, непродумками, фемінізмом, осучасненням слів і вчинків, відвертими (портрет Троцького в сільраді у 1932 році) і дрібними ляпами. Але набагато краще, ніж усі вітчизняні повнометражні історичні фільми.
Ваш часовий пояс: GMT + 2 Години

Нова тема   Відповісти