І будуть люди (Сезон 1) (2019) 720p

Нові коментарі

Нова тема   Відповісти
Автор Повідомлення
sergiyko.5 
Забанено
Забанено


З нами з: 25.02.16
Востаннє: 29.10.20
Повідомлень: 3650

2020-09-18 18:07  
Всі одноіменні релізи на трекері

І будуть люди (Сезон 1) (2019) 720p


І будуть люди (Сезон 1) (2019) 720p

Жанр: сімейна сага, історична драма
Країна: Україна
Кінокомпанія: FILM.UA Group, СТБ
Режисер: Аркадій Непиталюк
Актори: Катерина Григоренко, Остап Дзядек, Акмал Гурєзов, Віктор Жданов, Олена Борозенець, Костянтин Темляк, Олександр Піскунов, Олександр Мавріц, Макар Тіхоміров, Анна Тамбова, Марина Кошкіна та ін.

Сюжет:
Серіал знятий за мотивами епохального роману Анатолія Дімарова «І будуть люди». Автори позиціонують стрічку як історичну сагу, де в центрі сюжету – звичайні люди, яких зненацька застали темні часи: Перша світова війна, революція та прихід радянської влади. У драмі 12 головних персонажів, які кохають, працюють і намагаються знайти своє місце у новому вимірі історії. У кожного героя серіалу «І будуть люди» своя правда, і всі вони по-різному реагують на турбулентні етапи та суспільні зміни. Проте є дещо, що їх об’єднує, – бажання жити.
Хоч епічна драма «І будуть люди» розповідає про людей, які жили ще 100 років тому, історична достовірність і актуальність подій зачепить за живе кожного глядача. У персонажах ми впізнаємо свої родини, рідних дідів-прадідів, які змогли вижити в нелюдських обставинах. Також укотре пригадаємо ті історичні події, які ніколи не можна забувати. Цей проєкт надзвичайно важливий для кожного українця, адже він дасть змогу краще зрозуміти свою природу та переоцінити сьогодення.


Тривалість: 1 серія 00:46:55 (цілком серій: 12 з 12)
Якість:

Відео: кодек: розмір кадру: 1280 х 720 бітрейт: 2300 кб/с
Аудіо: мова: українська озвучення: оригінал кодек: 2.0 бітрейт: 128 кб/с
Перелік серій
01 Свирид і Олена
02 Тетяна
03 Ганжа – новий голова сільради Тарасівки
04 Гайдука засудили до смерті
05 Федір повертається до Тарасівки
06 Олеся дізнається правду про своє народження
07 Олег і Таня знову зустрілися
08 Замах на голову сільради
09 Ольга приїжджає до Тарасівки з інспекцією
10 Оксен рятує зерно
11 Гінзбург пише Сталіну
12 Голод і нова надія
Про файл:
General
Unique ID : 50393053713451477538078965923120166130 (0x25E9595F82066B4D38F88F92583834F2)
Complete name : D:\Documents\Torrents\І будуть люди S01 720p \І будуть люди.S01E01.720p..
Format :
Format version : Version 4
File size : 819 MiB
Duration : 46 min 55 s
Overall bit rate : 2 440 kb/s
Movie name : І будуть люди S01 720p by sergiyko
Encoded date : UTC 2020-09-18 16:00:09
Writing application : v49.0.0 ('Sick Of Losing Soulmates') 64-bit
Writing library : libebml v1.4.0 + v1.6.1

Video
ID : 1
Format : AVC
Format/Info : Advanced Video Codec
Format profile : [email protected]
Format settings : CABAC / 5 Ref Frames
Format settings, CABAC : Yes
Format settings, Reference : 5 frames
Codec ID : V_MPEG4/ISO/AVC
Duration : 46 min 55 s
Bit rate : 2 309 kb/s
Width : 1 280 pixels
Height : 720 pixels
Display aspect ratio : 16:9
Frame rate mode : Constant
Frame rate : 25.000 FPS
Color space : YUV
Chroma subsampling : 4:2:0
Bit depth : 8 bits
Scan type : Progressive
Bits/(Pixel*Frame) : 0.100
Stream size : 775 MiB (95%)
Writing library : core 160
Encoding settings : cabac=1 / ref=5 / deblock=1:0:0 / analyse=0x3:0x113 / me=umh / subme=8 / psy=1 / psy_rd=1.00:0.00 / mixed_ref=1 / me_range=16 / chroma_me=1 / trellis=1 / 8x8dct=1 / cqm=0 / deadzone=21,11 / fast_pskip=1 / chroma_qp_offset=-2 / threads=22 / lookahead_threads=3 / sliced_threads=0 / nr=0 / decimate=1 / interlaced=0 / bluray_compat=0 / constrained_intra=0 / bframes=3 / b_pyramid=2 / b_adapt=2 / b_bias=0 / direct=3 / weightb=1 / open_gop=0 / weightp=2 / keyint=250 / keyint_min=25 / scenecut=40 / intra_refresh=0 / rc_lookahead=50 / rc=crf / mbtree=1 / crf=20.0 / qcomp=0.60 / qpmin=5 / qpmax=69 / qpstep=4 / ip_ratio=1.41 / aq=1:1.00
Language : Ukrainian
Default : Yes
Forced : No

Audio
ID : 2
Format : LC
Format/Info : Advanced Audio Codec Low Complexity
Codec ID : A_AAC-2
Duration : 46 min 55 s
Bit rate : 128 kb/s
Channel(s) : 2 channels
Channel layout : L R
Sampling rate : 48.0 kHz
Frame rate : 46.875 FPS (1024 SPF)
Compression mode : Lossy
Delay relative to video : -43 ms
Stream size : 43.0 MiB (5%)
Language : Ukrainian
Default : Yes
Forced : No
Скріншоти:


Запис: sergiyko


Золотий реліз (завантажене не впливає на рейтинг)
 Трекер:    Зареєстрований   

Завантажити / скачати український серіал



відео для новачків



 Зареєстрований:   2020-09-21 09:07
 Розмір:   9.72 GB 
 Оцінка серіалу:   8.8/10 (Голосів: 36)
   
sergiyko.5 
Забанено
Забанено


З нами з: 25.02.16
Востаннє: 29.10.20
Повідомлень: 3650

2020-09-21 09:08  
Додав 8-12 серії. Сезон повний. Приємного перегляду!
MinelliUA 
Новенький


З нами з: 30.01.17
Востаннє: 20.10.20
Повідомлень: 2

2020-09-28 19:41  
Дякую за роздачу. Дуже потрібний і цікавий серіал. Придертись можна багато до чого, але це вже те, що можна дивитись з цікавістю.
[Captain] 
Попереджень: 1
Попереджень: 1 


З нами з: 18.02.12
Востаннє: 29.11.20
Повідомлень: 2338

2020-09-28 21:41  
З Шевченком пов'язано?
nataliksa 
Свій


З нами з: 18.04.14
Востаннє: 01.12.20
Повідомлень: 76

2020-09-30 10:40  
[Captain]
Ні.

Недоліків багато,дуже дратівливих. От наприклад актриса Олена/Олеся просто ніяка,не кажучи вже про мелірування і буклі на макітрі. З жіночих актрис тільки на Тетяну було приємно дивитись.Актори-чоловіки більш переконливі,хоча й не дуже харизматичні.
Сама історія тяжка,цікава і досить динамічна.

Grem Shagert 
Новенький


З нами з: 12.03.17
Востаннє: 04.12.20
Повідомлень: 2

2020-10-01 17:38  
Дякую.
qarty1 
VIP


З нами з: 01.11.09
Востаннє: 04.12.20
Повідомлень: 399

2020-10-26 23:38  
совєтська вош стільки доль скалічила Українських, тяжкий серіал
+З80970100048 
Новенький


З нами з: 16.07.13
Востаннє: 12.11.20
Повідомлень: 2

2020-11-12 22:10  
Нарешті дочекався, з'явилися наші серіали. Вдячний виробникам.
maksymka 
Новенький


З нами з: 23.04.12
Востаннє: 28.11.20
Повідомлень: 1

2020-11-28 17:03  
Класний серіал. Подивися із задоволенням. Зрозумілі характери і стосунки. Правильні акценти
Ваш часовий пояс: GMT + 2 Години

Нова тема   Відповісти