Ліга Європи УЄФА 2020-21 / UEFA Europa League / 02. Round / Аріс (Греція) - Колос (Україна) / Aris vs Kolos / Футбол 1 (17.09.2020) 720p UKR

Нові коментарі

Нова тема   Відповісти
Автор Повідомлення
Anonymous 







2020-09-18 13:43  
Ліга Європи УЄФА 2020-21 / UEFA Europa League / 02. Round / Аріс (Греція) - Колос (Україна) / Aris vs Kolos / Футбол 1 (17.09.2020) 720p UKR

Ліга Європи УЄФА 2020-21 / UEFA Europa League / 02. Round / Аріс (Греція) - Колос (Україна) / Aris vs Kolos / Футбол 1 (17.09.2020) 720p UKR


Телеканал: Футбол 1
Опис:
Ліга Європи УЄФА 2020-21 / UEFA Europa League / 02. Round / Аріс (Греція) - Колос (Україна) / Aris vs Kolos (17.09.2020)
Тривалість:
00:52:38 + 00:54:01
Якість: 720p
Відео:
кодек:
розмір кадру: 1280x720
бітрейт: 4100 кб/с

Аудіо:
мова: українська
переклад: двоголосий закадровий | Круторогов Кирило Ігорович | Андрій Столярчук |
кодек: 2.0
бітрейт: 128 кб/с
Склади:






Скріншоти








Info
Код:

General
Complete name                            : UEFA Europa League » 02. Round »  Aris vs Kolos (17.09.2020.) 720p [UKR]\Half_1.
Format                                   :
Format version                           : Version 4
File size                                : 1.40 GiB
Duration                                 : 52 min 38 s
Overall bit rate                         : 3 803 kb/s
Writing application                      : Lavf58.10.100
Writing library                          : Lavf58.10.100
ErrorDetectionType                       : Per level 1

Video
ID                                       : 1
Format                                   : AVC
Format/Info                              : Advanced Video Codec
Format profile                           : [email protected]
Format settings                          : CABAC / 4 Ref Frames
Format settings, CABAC                   : Yes
Format settings, RefFrames               : 4 frames
Codec ID                                 : V_MPEG4/ISO/AVC
Duration                                 : 52 min 37 s
Bit rate                                 : 3 599 kb/s
Width                                    : 1 280 pixels
Height                                   : 720 pixels
Display aspect ratio                     : 16:9
Frame rate mode                          : Constant
Frame rate                               : 50.000 FPS
Color space                              : YUV
Chroma subsampling                       : 4:2:0
Bit depth                                : 8 bits
Scan type                                : Progressive
Bits/(Pixel*Frame)                       : 0.078
Stream size                              : 1.32 GiB (95%)
Writing library                          : core 155 r2901 7d0ff22
Encoding settings                        : cabac=1 / ref=3 / deblock=1:0:0 / analyse=0x3:0x113 / me=hex / subme=7 / psy=1 / psy_rd=1.00:0.00 / mixed_ref=1 / me_range=16 / chroma_me=1 / trellis=1 / 8x8dct=1 / cqm=0 / deadzone=21,11 / fast_pskip=1 / chroma_qp_offset=-2 / threads=22 / lookahead_threads=3 / sliced_threads=0 / nr=0 / decimate=1 / interlaced=0 / bluray_compat=0 / constrained_intra=0 / bframes=3 / b_pyramid=2 / b_adapt=1 / b_bias=0 / direct=1 / weightb=1 / open_gop=0 / weightp=2 / keyint=250 / keyint_min=25 / scenecut=40 / intra_refresh=0 / rc_lookahead=40 / rc=crf / mbtree=1 / crf=21.5 / qcomp=0.60 / qpmin=0 / qpmax=69 / qpstep=4 / ip_ratio=1.40 / aq=1:1.00
Default                                  : Yes
Forced                                   : No

Audio
ID                                       : 2
Format                                   : AC-3
Format/Info                              : Audio Coding 3
Commercial name                          : Dolby Digital
Codec ID                                 : A_AC3
Duration                                 : 52 min 37 s
Bit rate mode                            : Constant
Bit rate                                 : 128 kb/s
Channel(s)                               : 2 channels
Channel layout                           : L R
Sampling rate                            : 48.0 kHz
Frame rate                               : 31.250 FPS (1536 SPF)
Bit depth                                : 16 bits
Compression mode                         : Lossy
Delay relative to video                  : -85 ms
Stream size                              : 48.2 MiB (3%)
Writing library                          : Lavc58.16.100
Language                                 : Ukrainian
Service kind                             : Complete Main
Default                                  : No
Forced                                   : No
Подяка за допомогу у створенні релізу : rgfootball
Особиста оцінка: 8 - мені сподобалося


Бронзовий реліз (на рейтинг впливає 75% завантаженого)
 Трекер:    Зареєстрований   

Завантажити / скачати торрент



відео для новачків



 Зареєстрований:   2020-09-18 13:43
 Розмір:   2.52 GB 
 Оцінка:   10/10 (Голосів: 4)
   
Ваш часовий пояс: GMT + 2 Години

Нова тема   Відповісти