Агент Єва / Ava (2020) UHD 2160p 4K H.265 Ukr/Eng | Sub Ukr/Eng

Нові коментарі

Нова тема   Відповісти
Автор Повідомлення
Neo_Men 
Поважний учасник


З нами з: 21.11.15
Востаннє: 26.01.21
Повідомлень: 153

2020-09-17 18:25  
Агент Єва / Ava (2020) UHD 2160p 4K H.265 Ukr/Eng | Sub Ukr/Eng

Агент Єва / Ava (2020) UHD 2160p 4K H.265 Ukr/Eng | Sub Ukr/Eng


Жанр: детектив, драма, кримінал, трилер
Країна: США



Кінокомпанія: Voltage Pictures
Режисер: Тейт Тейлор
Актори: Джессіка Честейн, Коммон, Джон Малкович, Колін Фаррелл, Джина Девіс, Діана Сильверс, Йоан Гріффіт, Джоан Чен, Джесс Вейкслер, Джанель Фейгль

Сюжет:
Вона розумна, красива і надзвичайно небезпечна. Переміщаючись по світу немов тінь, агент Єва виконує найскладніші завдання свого керівництва. Раптово, коли чергова спецоперація йде не за планом, і Єва вирішує вийти з гри, один з босів секретної служби відкриває на неї полювання.


Тривалість: 01:36:49
Якість: 2160p
Відео:
кодек: H.265
розмір кадру: 3840 x 2160
бітрейт: 15,9 Mб/с

Аудіо # 1:
мова: українська
переклад: професійний дубльований
кодек: 5.1
бітрейт: 384 кб/с

Аудіо # 2:
мова: англійська
переклад: оригінал
кодек: 5.1
бітрейт: 640 кб/с

Джерело озвучення:


Субтитри:
мова: українська
тип: програмні (м'які)
формат: *.srt

Субтитри:
мова: англійська
тип: програмні (м'які)
формат: *.srt
Info
Код:
General
Unique ID                                : 228249742107465889083189505821637264797 (0xABB74D22CE443A62B4F593F1B59AC59D)
Complete name                            : Ava (2020) 2160p [UKR_ENG] [Hurtom].
Format                                   :
Format version                           : Version 4
File size                                : 11.4 GiB
Duration                                 : 1 h 36 min
Overall bit rate                         : 16.9 Mb/s
Movie name                               : Neo_Men for Hurtom
Encoded date                             : UTC 2020-09-17 16:17:01
Writing application                      : v8.3.0 ('Over the Horizon') 64bit
Writing library                          : libebml v1.3.1 + v1.4.2
Cover                                    : Yes
Attachments                              : Cover.jpg

Video
ID                                       : 1
Format                                   : HEVC
Format/Info                              : High Efficiency Video Coding
Format profile                           : [email protected]@Main
Codec ID                                 : V_MPEGH/ISO/HEVC
Duration                                 : 1 h 36 min
Bit rate                                 : 15.9 Mb/s
Width                                    : 3 840 pixels
Height                                   : 2 160 pixels
Display aspect ratio                     : 16:9
Frame rate mode                          : Constant
Frame rate                               : 23.976 (24000/1001) FPS
Original frame rate                      : 23.976 (23976/1000) FPS
Color space                              : YUV
Chroma subsampling                       : 4:2:0
Bit depth                                : 8 bits
Bits/(Pixel*Frame)                       : 0.080
Stream size                              : 10.7 GiB (94%)
Title                                    : Ava (2020)
Writing library                          : x265 3.0_RC+11-72188bd2f034:[Linux][GCC 4.9.2][64 bit] 8bit+10bit+12bit
Encoding settings                        : cpuid=1111039 / frame-threads=3 / wpp / no-pmode / no-pme / no-psnr / no-ssim / log-level=2 / input-csp=1 / input-res=3840x2160 / interlace=0 / total-frames=0 / level-idc=51 / high-tier=1 / uhd-bd=0 / ref=4 / no-allow-non-conformance / no-repeat-headers / annexb / no-aud / no-hrd / info / hash=0 / no-temporal-layers / no-open-gop / min-keyint=24 / keyint=48 / gop-lookahead=0 / bframes=3 / b-adapt=0 / no-b-pyramid / bframe-bias=0 / rc-lookahead=15 / lookahead-slices=8 / scenecut=0 / radl=0 / no-splice / no-intra-refresh / ctu=64 / min-cu-size=8 / no-rect / no-amp / max-tu-size=32 / tu-inter-depth=1 / tu-intra-depth=1 / limit-tu=0 / rdoq-level=0 / dynamic-rd=0.00 / no-ssim-rd / signhide / no-tskip / nr-intra=0 / nr-inter=0 / no-constrained-intra / strong-intra-smoothing / max-merge=2 / limit-refs=3 / no-limit-modes / me=1 / subme=2 / merange=57 / temporal-mvp / weightp / no-weightb / no-analyze-src-pics / deblock=0:0 / sao / no-sao-non-deblock / rd=2 / no-early-skip / rskip / fast-intra / no-tskip-fast / no-cu-lossless / no-b-intra / no-splitrd-skip / rdpenalty=0 / psy-rd=2.00 / psy-rdoq=0.00 / no-rd-refine / no-lossless / cbqpoffs=0 / crqpoffs=0 / rc=cbr / bitrate=16000 / qcomp=0.60 / qpstep=4 / stats-write=0 / stats-read=0 / vbv-maxrate=16000 / vbv-bufsize=32000 / vbv-init=0.9 / ipratio=1.40 / pbratio=1.30 / aq-mode=2 / aq-strength=1.00 / cutree / zone-count=0 / no-strict-cbr / qg-size=32 / no-rc-grain / qpmax=69 / qpmin=0 / no-const-vbv / sar=1 / overscan=0 / videoformat=5 / range=0 / colorprim=2 / transfer=2 / colormatrix=2 / chromaloc=0 / display-window=0 / max-cll=0,0 / min-luma=0 / max-luma=255 / log2-max-poc-lsb=8 / vui-timing-info / vui-hrd-info / slices=1 / no-opt-qp-pps / no-opt-ref-list-length-pps / no-multi-pass-opt-rps / scenecut-bias=0.05 / no-opt-cu-delta-qp / no-aq-motion / no-hdr / no-hdr-opt / no-dhdr10-opt / no-idr-recovery-sei / analysis-reuse-level=5 / scale-factor=0 / refine-intra=0 / refine-inter=0 / refine-mv=0 / refine-ctu-distortion=0 / no-limit-sao / ctu-info=0 / no-lowpass-dct / refine-analysis-type=0 / copy-pic=1 / max-ausize-factor=1.0 / no-dynamic-refine / no-single-sei / no-hevc-aq / qp-adaptation-range=1.00
Default                                  : Yes
Forced                                   : No

Audio #1
ID                                       : 2
Format                                   : AC-3
Format/Info                              : Audio Coding 3
Commercial name                          : Dolby Digital
Codec ID                                 : A_AC3
Duration                                 : 1 h 36 min
Bit rate mode                            : Constant
Bit rate                                 : 384 kb/s
Channel(s)                               : 6 channels
Channel layout                           : L R C LFE Ls Rs
Sampling rate                            : 48.0 kHz
Frame rate                               : 31.250 FPS (1536 SPF)
Bit depth                                : 16 bits
Compression mode                         : Lossy
Stream size                              : 266 MiB (2%)
Title                                    : DUB
Language                                 : Ukrainian
Service kind                             : Complete Main
Default                                  : No
Forced                                   : No

Audio #2
ID                                       : 3
Format                                   : AC-3
Format/Info                              : Audio Coding 3
Commercial name                          : Dolby Digital
Codec ID                                 : A_AC3
Duration                                 : 1 h 36 min
Bit rate mode                            : Constant
Bit rate                                 : 640 kb/s
Channel(s)                               : 6 channels
Channel layout                           : L R C LFE Ls Rs
Sampling rate                            : 48.0 kHz
Frame rate                               : 31.250 FPS (1536 SPF)
Bit depth                                : 16 bits
Compression mode                         : Lossy
Stream size                              : 443 MiB (4%)
Language                                 : English
Service kind                             : Complete Main
Default                                  : No
Forced                                   : No

Text #1
ID                                       : 4
Format                                   : UTF-8
Codec ID                                 : S_TEXT/UTF8
Codec ID/Info                            : UTF-8 Plain Text
Duration                                 : 54 min 4 s
Bit rate                                 : 7 b/s
Count of elements                        : 55
Stream size                              : 2.88 KiB (0%)
Title                                    : Forced
Language                                 : Ukrainian
Default                                  : Yes
Forced                                   : No

Text #2
ID                                       : 5
Format                                   : UTF-8
Codec ID                                 : S_TEXT/UTF8
Codec ID/Info                            : UTF-8 Plain Text
Duration                                 : 1 h 30 min
Bit rate                                 : 47 b/s
Count of elements                        : 912
Stream size                              : 31.7 KiB (0%)
Title                                    : Full
Language                                 : English
Default                                  : No
Forced                                   : No

Text #3
ID                                       : 6
Format                                   : UTF-8
Codec ID                                 : S_TEXT/UTF8
Codec ID/Info                            : UTF-8 Plain Text
Duration                                 : 1 h 31 min
Bit rate                                 : 52 b/s
Count of elements                        : 1067
Stream size                              : 35.1 KiB (0%)
Title                                    : SDH
Language                                 : English
Default                                  : No
Forced                                   : No
Скріншоти



Джерело:
Особиста оцінка: 0 - не дивився


 Трекер:    Зареєстрований   

Завантажити / скачати фільм українською



відео для новачків



 Зареєстрований:   2020-09-17 18:25
 Розмір:   11.44 GB 
 Оцінка фільму:   8.4/10 (Голосів: 11)
   
Інші релізи
   Агент Єва / Ava (2020) 1080p H.265 Ukr/Eng | Sub Ukr/Eng Neo_Men  7 / 0   4.18 GB   2020-09-13 15:43 
   Агент Єва / Ava (2020) AVC Ukr/Eng | Sub Eng antik_2008  8 / 0   2.39 GB   2020-09-11 09:40 
   Агент Єва / Ava (2020) 1080p Ukr/Eng | Sub Eng antik_2008  10 / 0   7.52 GB   2020-09-11 08:55 
   Агент Єва / Ava (2020) Ukr/Eng antik_2008  19 / 0   1.99 GB   2020-09-11 08:54 
   Агент Єва / Ava (2020) 720p Ukr/Eng | Sub Eng eneyida.tv  7 / 0   4.07 GB   2020-09-11 08:53 
   Агент Єва / Ava (2020) Remux 1080p Ukr/Eng | Sub Eng antik_2008  4 / 0   18.98 GB   2020-09-11 08:19 
STALKER_SLX 
Частий відвідувач


З нами з: 09.04.10
Востаннє: 26.01.21
Повідомлень: 35

2021-01-03 23:31  
коли чекати на кращу якість?!
Ваш часовий пояс: GMT + 2 Години

Нова тема   Відповісти