Мандалорець (Сезон 2, Серії 1-5) / The Mandalorian (Season 2, Episodes 1-5) (2020) 1080p Ukr/Eng | Sub Ukr/Eng

Нові коментарі

Нова тема   Відповісти
Сторінка:  1, 2, 3  наступна
Автор Повідомлення
Anaive 
VIP


З нами з: 07.06.11
Востаннє: 02.12.20
Повідомлень: 321

2020-09-17 18:01  
Мандалорець (Сезон 2, Серії 1-5) / The Mandalorian (Season 2, Episodes 1-5) (2020) 1080p Ukr/Eng | Sub Ukr/Eng


ПІДТРИМАТИ ОЗВУЧЕННЯ ТУТ

Мандалорець (Сезон 2, Серії 1-5) / The Mandalorian (Season 2, Episodes 1-5) (2020) 1080p Ukr/Eng | Sub Ukr/Eng


Жанр: фантастика, бойовик, пригодницький
Країна: США



Кінокомпанія: Lucasfilm Ltd., Walt Disney Studios, Disney+
Режисер: Дебора Чоу, Рік Фамуйва, Дейв Філоні, Брайс Даллас Говард, Тайка Вайтіті
Актори: Педро Паскаль, Кайл Пацек, Брендан Вейн, Бернард Бален, Александра Гілман

Сюжет:
Історія мандалорця тепер на "малих" екранах, в якій представнику колись такого могутнього народу доведеться виживати в закапелках галактики Всесвіту Зоряних Війн.


Тривалість: 1 серія: 50:00 (цілком серій: 5/8)
Перелік серій
09. Розділ дев'ятий: Маршал
10. Розділ десятий: Пасажир
11. Розділ одинадцятий: Спадкоємиця
12. Розділ дванадцятий: Облога
13. Розділ тринадцятий: Джедай

14. Розділ шостий:
15. Розділ сьомий:
16. Розділ восьмий:
Якість: 1080p
Відео:
кодек:
розмір кадру: 1920 х 1080
бітрейт: 6358 кб/с

Аудіо # 1:
мова: українська
переклад: багатоголосий закадровий (AnaivE, В одне рило, Анастасія Гайдаржи, Enelira)
кодек: 2.0
бітрейт: 320 кб/с

Аудіо # 2:
мова: українська
переклад: багатоголосий закадровий (AnaivE, В одне рило, Анастасія Гайдаржи, Enelira)
кодек: 5.1
бітрейт: 640 кб/с

Аудіо # 3:
мова: англійська
переклад: оригінал
кодек: E- JOC 5.1
бітрейт: 768 кб/с

Субтитри # 1:
мова: українська (1 серія AnaivE , далі MadGuy)
тип: програмні (м'які)
формат: .srt

Субтитри # 2:
мова: англійська
тип: програмні (м'які)
формат: .srt

Джерело озвучення та перекладу: В одне рило
Info

General
Unique ID : 11290621486930038639747361105012778511 (0x87E7E9E2FDF2A5EFE3D01E98F96E60F)
Complete name : D:\Video\The Mandalorian (Season 2) ukr 1080p (В одне рило)\The.Mandalorian.S02E01.Chapter.9.1080p.
Format :
Format version : Version 4
File size : 2.93 GiB
Duration : 51 min 48 s
Overall bit rate : 8 089 kb/s
Encoded date : UTC 2020-10-30 22:14:44
Writing application : v41.0.0 ('Smarra') 64-bit
Writing library : libebml v1.3.9 + v1.5.2
Anyway : enjoy your star trek kids
Greetz to : BHD staff for being amazing uwu
Hi : pls let me (impragma) back on BTN, I miss it Cry (1)

Video
ID : 1
Format : HEVC
Format/Info : High Efficiency Video Coding
Format profile : Main [email protected]@High
Codec ID : V_MPEGH/ISO/HEVC
Duration : 51 min 48 s
Bit rate : 6 358 kb/s
Width : 1 920 pixels
Height : 1 080 pixels
Display aspect ratio : 16:9
Frame rate mode : Constant
Frame rate : 23.976 (24000/1001) FPS
Color space : YUV
Chroma subsampling : 4:2:0
Bit depth : 10 bits
Bits/(Pixel*Frame) : 0.128
Stream size : 2.30 GiB (79%)
Language : English
Default : Yes
Forced : No
Color range : Limited
Color primaries : BT.709
Transfer characteristics : BT.709
Matrix coefficients : BT.709

Audio #1
ID : 2
Format : AC-3
Format/Info : Audio Coding 3
Commercial name : Dolby Digital
Codec ID : A_AC3
Duration : 51 min 48 s
Bit rate mode : Constant
Bit rate : 320 kb/s
Channel(s) : 2 channels
Channel layout : L R
Sampling rate : 48.0 kHz
Frame rate : 31.250 FPS (1536 SPF)
Compression mode : Lossy
Stream size : 119 MiB (4%)
Title : Ukrainian (В одне рило) MVO 2.0
Language : Ukrainian
Service kind : Complete Main
Default : Yes
Forced : No

Audio #2
ID : 3
Format : AC-3
Format/Info : Audio Coding 3
Commercial name : Dolby Digital
Codec ID : A_AC3
Duration : 51 min 48 s
Bit rate mode : Constant
Bit rate : 640 kb/s
Channel(s) : 6 channels
Channel layout : L R C LFE Ls Rs
Sampling rate : 48.0 kHz
Frame rate : 31.250 FPS (1536 SPF)
Compression mode : Lossy
Stream size : 237 MiB (8%)
Title : Ukrainian (В одне рило) MVO 5.1
Language : Ukrainian
Service kind : Complete Main
Default : No
Forced : No

Audio #3
ID : 4
Format : E-AC-3 JOC
Format/Info : Enhanced AC-3 with Joint Object Coding
Commercial name : Dolby Digital Plus with Dolby Atmos
Codec ID : A_EAC3
Duration : 51 min 48 s
Bit rate mode : Constant
Bit rate : 768 kb/s
Channel(s) : 6 channels
Channel layout : L R C LFE Ls Rs
Sampling rate : 48.0 kHz
Frame rate : 31.250 FPS (1536 SPF)
Compression mode : Lossy
Stream size : 285 MiB (9%)
Title : English
Language : English
Service kind : Complete Main
Default : No
Forced : No
Complexity index : 16
Number of dynamic objects : 15
Bed channel count : 1 channel
Bed channel configuration : LFE

Text #1
ID : 5
Format : UTF-8
Codec ID : S_TEXT/UTF8
Codec ID/Info : UTF-8 Plain Text
Duration : 48 min 13 s
Bit rate : 56 b/s
Count of elements : 342
Stream size : 19.9 KiB (0%)
Title : Ukrainian (AnaivE)
Language : Ukrainian
Default : No
Forced : No

Text #2
ID : 6
Format : UTF-8
Codec ID : S_TEXT/UTF8
Codec ID/Info : UTF-8 Plain Text
Duration : 48 min 25 s
Bit rate : 43 b/s
Count of elements : 481
Stream size : 15.4 KiB (0%)
Title : English (CC)
Language : English
Default : No
Forced : No
Скріншоти




ТРЕЙЛЕР


ПОРТФОЛІО
Особиста оцінка: 10 - без зайвих вагань рекомендую всім!


Авторський реліз (завантажувати можна без реєстрації)
 Трекер:    Зареєстрований   

Завантажити / скачати серіал українською



відео для новачків



 Зареєстрований:   2020-11-27 21:52
 Розмір:   14.43 GB 
 Оцінка серіалу:   9.9/10 (Голосів: 83)
   
bot 
робот


З нами з: 30.09.07
Востаннє: 26.05.05
Повідомлень: 26447

2020-09-17 18:02  
Тему перенесено з Серіали в HD до форуму Анонси релізів


Anaive

Anaive 
VIP


З нами з: 07.06.11
Востаннє: 02.12.20
Повідомлень: 321

2020-09-19 22:27  
Додав трейлер.
dimon-2018 
VIP


З нами з: 06.05.18
Востаннє: 03.12.20
Повідомлень: 528

2020-09-20 05:56  
Anaive, Ви б може за якийсь інший проект взялися би, все одно цей серіал буде Стругачка озвучувати.
Anaive 
VIP


З нами з: 07.06.11
Востаннє: 02.12.20
Повідомлень: 321

2020-09-21 14:45  
Еге ж, ще й гдрезка
Я подумаю над пропозицією, dimon-2018

Masanchick 
Попереджень: 1
Попереджень: 1 


З нами з: 08.04.11
Востаннє: 03.12.20
Повідомлень: 625

2020-09-21 14:50  
Anaive написано:

Еге ж, ще й гдрезка
Я подумаю над пропозицією, dimon-2018

Та і з Войном таж сама проблема, Дніпрофілм його бере на озвучку

Anaive 
VIP


З нами з: 07.06.11
Востаннє: 02.12.20
Повідомлень: 321

2020-10-30 22:55  
Masanchick
такоє Wink (1)

bot 
робот


З нами з: 30.09.07
Востаннє: 26.05.05
Повідомлень: 26447

2020-10-30 23:47  
Тему перенесено з Анонси релізів до форуму Серіали в HD


Anaive

Anaive 
VIP


З нами з: 07.06.11
Востаннє: 02.12.20
Повідомлень: 321

2020-10-31 00:22  
+1 серія.
oster_ok 
Відео Гуртом - підтримка та поширення
Відео Гуртом - підтримка та поширення


З нами з: 20.11.11
Востаннє: 02.12.20
Повідомлень: 178

2020-10-31 00:30  
Цей шедевр буду роздавати зі смартфона цілу ніч.
Дякую за озвучення!

Masanchick 
Попереджень: 1
Попереджень: 1 


З нами з: 08.04.11
Востаннє: 03.12.20
Повідомлень: 625

2020-10-31 00:36  
Все таки вирішили озвучувати), щей замість одноголосого озвучення багатоголосе)
Дуже гарна швидкість, на кілька годин повільніше озвучили чим інша команда озвучення.

oster_ok 
Відео Гуртом - підтримка та поширення
Відео Гуртом - підтримка та поширення


З нами з: 20.11.11
Востаннє: 02.12.20
Повідомлень: 178

2020-10-31 00:40  
Masanchick написано:
на кілька годин повільніше озвучили чим інша команда озвучення

а ще хто озвучує 2 сезон? На трекері поки що є лише ця роздача

zhytkov 
Новенький


З нами з: 08.03.20
Востаннє: 03.12.20
Повідомлень: 15

2020-10-31 00:42  
Цитата:
а ще хто озвучує

хдрезка

Masanchick 
Попереджень: 1
Попереджень: 1 


З нами з: 08.04.11
Востаннє: 03.12.20
Повідомлень: 625

2020-10-31 00:45  
oster_ok
Дніпрофілм (під ім'ям Hdrrzka studio)озвучили 1 серію (1 сезон не озвучували), в середу має викласти 1 серію Стругачка (1 сезон озвучили )
В результаті буде 3 озвучки

Dark Invader 
Модератор відео


З нами з: 06.01.11
Востаннє: 03.12.20
Повідомлень: 3007

2020-10-31 01:04  
Anaive написано:
(Сезон 2)

Вкажіть, що тут одна серія тільки, а не весь сезон.

Anaive 
VIP


З нами з: 07.06.11
Востаннє: 02.12.20
Повідомлень: 321

2020-10-31 01:06  
Dark Invader
+

Dark Invader 
Модератор відео


З нами з: 06.01.11
Востаннє: 03.12.20
Повідомлень: 3007

2020-10-31 01:28  
Anaive
Ще додайте список серій.

redcit 
VIP


З нами з: 21.12.10
Востаннє: 03.12.20
Повідомлень: 870

2020-10-31 09:16  
Це якийсь фан-постер?
Electroz 
Відео Гуртом - підтримка та поширення
Відео Гуртом - підтримка та поширення


З нами з: 18.09.14
Востаннє: 03.12.20
Повідомлень: 4219

2020-10-31 09:29  
redcit написано:
Це якийсь фан-постер?

Так, три місяці тому один із фанів зробив.

Ігор Юрич 
Новенький


З нами з: 30.09.18
Востаннє: 02.12.20
Повідомлень: 1

2020-10-31 10:47  
oster_ok
ух постер епічний! Асока, Рекс, Бо-Катан. оргазм для олдфагів

Stariy Bars 
Частий відвідувач


З нами з: 14.10.14
Востаннє: 03.12.20
Повідомлень: 31

2020-10-31 18:11  
Так, не часто я переглядаю одну й ту саму серію двічі. Тож браво Джон Фавро! Браво AnaivE і команда!
sanyokfuriv 
Свій


З нами з: 05.07.11
Востаннє: 02.12.20
Повідомлень: 83

2020-10-31 18:49  
Дуже дякую за серію Anaive !!!
Electroz 
Відео Гуртом - підтримка та поширення
Відео Гуртом - підтримка та поширення


З нами з: 18.09.14
Востаннє: 03.12.20
Повідомлень: 4219

2020-10-31 20:32  
Хто озвучує низьким жіночим голосом?
tilda4334 
VIP


З нами з: 15.08.14
Востаннє: 03.12.20
Повідомлень: 1182

2020-10-31 20:35  
Electroz
Анастасія

Anaive 
VIP


З нами з: 07.06.11
Востаннє: 02.12.20
Повідомлень: 321

2020-11-01 15:36  
Як вам Бобба Фет?)
Постарів знатно актор
Подимось: про джедаїв йому відомо багато
Правда, на його місці я б хотів вбити малого, а не допомагати

doslis 
Свій


З нами з: 15.02.16
Востаннє: 03.12.20
Повідомлень: 67

2020-11-01 17:07  
Дякую хлопці і дівчата, звісно, за озвучку!
Серіал наївна нелогічна дурня, але для перегляду ввечері, саме те!
ЗІ. І йоденя смішне )

A1B1C1 
Частий відвідувач


З нами з: 19.02.12
Востаннє: 01.12.20
Повідомлень: 34

2020-11-02 22:02  
Розсинхрон на перших 10хв фільму, перевіряв на двох плеєрах
Anaive 
VIP


З нами з: 07.06.11
Востаннє: 02.12.20
Повідомлень: 321

2020-11-03 11:37  
A1B1C1
ні, все ок.

dimon-2018 
VIP


З нами з: 06.05.18
Востаннє: 03.12.20
Повідомлень: 528

2020-11-03 13:00  
Anaive написано:
Правда, на його місці я б хотів вбити малого, а не допомагати

А чого Ви вирішили, що він буде допомагати? Можливо, він якраз і буде хотіти його вбити? Може він працює на Мофа Гідеона?

A1B1C1 
Частий відвідувач


З нами з: 19.02.12
Востаннє: 01.12.20
Повідомлень: 34

2020-11-03 14:17  
Anaive
Це якісь проблеми із моїм Х96 (VLC/ Kodi - не хочуть нормально програвати фільми...)
Хто які ще використовує програвачі?

Ваш часовий пояс: GMT + 2 Години

Нова тема   Відповісти Сторінка:  1, 2, 3  наступна