Виховані вовками (Сезон 1, серії 1-9) / Raised by Wolves (Season 1, Episodes 1-9) (2020) Ukr/Eng

Нові коментарі

Нова тема   Відповісти
Автор Повідомлення
Anonymous 







2020-09-17 14:05  
AVI | AVC | 1080p
Виховані вовками (Сезон 1, серії 1-9) / Raised by Wolves (Season 1, Episodes 1-9) (2020) Ukr/Eng


Жанр: вестерн, фантастика
Країна: США



Кінокомпанія: Film Afrika Worldwide, Lit Entertainment Group, Scott Free Productions
Режисер: Аарон Ґузіковський / Aaron Guzikowski
Актори: Тревіс Фіммел, Аманда Коллін, Абубакар Салім, Вінта МакҐрат, Ніам Алґар, Фелікс Джемісон, Ітан Газзард, Джордан Луґрен, Аасія Ша, Айві Вонґ, Матіас Варела та ін.

Сюжет:
Події серіалу розгортаються довкола двох андроїдів — Батька і Матері, яким, після знищення Землі Великою війною, доручили виховання людських дітей на загадковій новій планеті. Позаяк колонії людей, що розростається, загрожує загибель через релігійні розбіжності, андроїди дізнаються, що контролювати переконання людей — підступне і важке завдання.


Перекладено та озвучено студією НеЗупиняйПродакшн


Тривалість: 1 серія: ~ 1 год. (цілком серій: 10)
Перелік серій
1. Raised by Wolves
1. Raised by Wolves
2. Pentagram
3. Virtual Faith
4. Nature's Course
5. Infected Memory
6. Lost Paradise
7. Faces
8. Mass
9. Umbilical
10.
Якість:

Відео:
кодек:
розмір кадру: 720 x 400
бітрейт: ~ 1800 - 2704 кб/с

Аудіо # 1:
мова: українська
переклад: професійний багатоголосий закадровий
кодек: 5.1
бітрейт: 384 кб/с

Озвучено студією НеЗупиняйПродакшн


Аудіо # 2:
мова: англійська
переклад: оригінал
кодек: 5.1
бітрейт: 384 кб/с
Info
Код:
General
Complete name                            : Raised by Wolves.[Season 1] (2020) [Ukr.Eng] [Hurtom]\Raised by Wolves.S01E01 (2020) [Ukr.Eng] [Hurtom].avi
Format                                   : AVI
Format/Info                              : Audio Video Interleave
Format profile                           : OpenDML
File size                                : 1.02 GiB
Duration                                 : 53 min 7 s
Overall bit rate                         : 2 739 kb/s
Movie name                               : Raised by Wolves.S01E01 (2020) 1080p [Ukr.Eng] [Hurtom]
Writing application                      : Lavf58.20.100

Video
ID                                       : 0
Format                                   : MPEG-4 Visual
Format profile                           : Advanced [email protected]
Format settings                          : BVOP1
Format settings, BVOP                    : 1
Format settings, QPel                    : No
Format settings, GMC                     : No warppoints
Format settings, Matrix                  : Default (H.263)
Codec ID                                 :
Codec ID/Hint                            :
Duration                                 : 53 min 7 s
Bit rate                                 : 1 949 kb/s
Width                                    : 720 pixels
Height                                   : 400 pixels
Display aspect ratio                     : 16:9
Frame rate                               : 23.976 (24000/1001) FPS
Color space                              : YUV
Chroma subsampling                       : 4:2:0
Bit depth                                : 8 bits
Scan type                                : Progressive
Compression mode                         : Lossy
Bits/(Pixel*Frame)                       : 0.282
Stream size                              : 741 MiB (71%)
Writing library                          : 67

Audio #1
ID                                       : 1
Format                                   : AC-3
Format/Info                              : Audio Coding 3
Commercial name                          : Dolby Digital
Codec ID                                 : 2000
Duration                                 : 53 min 7 s
Bit rate mode                            : Constant
Bit rate                                 : 384 kb/s
Channel(s)                               : 6 channels
Channel layout                           : L R C LFE Ls Rs
Sampling rate                            : 48.0 kHz
Frame rate                               : 31.250 FPS (1536 SPF)
Bit depth                                : 16 bits
Compression mode                         : Lossy
Stream size                              : 146 MiB (14%)
Alignment                                : Aligned on interleaves
Interleave, duration                     : 32  ms (0.77 video frame)
Title                                    : Українська (НеЗупиняйПродакшн)
Service kind                             : Complete Main

Audio #2
ID                                       : 2
Format                                   : AC-3
Format/Info                              : Audio Coding 3
Commercial name                          : Dolby Digital
Codec ID                                 : 2000
Duration                                 : 53 min 7 s
Bit rate mode                            : Constant
Bit rate                                 : 384 kb/s
Channel(s)                               : 6 channels
Channel layout                           : L R C LFE Ls Rs
Sampling rate                            : 48.0 kHz
Frame rate                               : 31.250 FPS (1536 SPF)
Bit depth                                : 16 bits
Compression mode                         : Lossy
Stream size                              : 146 MiB (14%)
Alignment                                : Aligned on interleaves
Interleave, duration                     : 32  ms (0.77 video frame)
Service kind                             : Complete Main
Скріншоти




Український трейлер




Джерело:
Особиста оцінка: 0 - не дивився


Авторський реліз (завантажувати можна без реєстрації)
 Трекер:    Зареєстрований   

Завантажити / скачати серіал українською



відео для новачків



 Зареєстрований:   2020-09-27 13:23
 Розмір:   8.24 GB 
 Оцінка серіалу:   9.9/10 (Голосів: 29)
   
Anonymous 







2020-09-19 01:54  
Додано 6-7 серії

Goshanad 
Новенький


З нами з: 22.04.16
Востаннє: 30.09.20
Повідомлень: 8

2020-09-20 12:08  
Дякую шо не свинопсова рєзка.Фінансувати вбивць не маю ніякого бажання.А Вам успіхів.
tilda4334 
VIP


З нами з: 15.08.14
Востаннє: 29.09.20
Повідомлень: 1072

2020-09-20 12:10  
Anonymous написано:
Дякую шо не свинопсова рєзка.Фінансувати вбивць не маю ніякого бажання.

А яким чином ви їх фінансуєте тут на толоці?

Додано через 1 хвилину 37 секунд:

Ви їх фінансуєте, лише якщо дивитеся на їхньому сайті, та ще й без блокувальника.

Anonymous 







2020-09-27 13:24  
Додано 8-9 серії

Ваш часовий пояс: GMT + 2 Години

Нова тема   Відповісти