Ліга Чемпіонів 2020-2021 / 3-й кваліфікаційний раунд / Динамо Київ (Україна) - АЗ Алкмар (Нідерланди) / FC Dynamo Kyiv - AZ Alkmaar / 2 + 2 (15.09.2020) DVB UKR

Нові коментарі

Нова тема   Відповісти
Автор Повідомлення
Anonymous 







2020-09-17 13:43  
Ліга Чемпіонів 2020-2021 / 3-й кваліфікаційний раунд / Динамо Київ (Україна) - АЗ Алкмар (Нідерланди) / FC Dynamo Kyiv - AZ Alkmaar / 2 + 2 (15.09.2020) DVB UKR

Ліга Чемпіонів 2020-2021 / 3-й кваліфікаційний раунд / Динамо Київ (Україна) - АЗ Алкмар (Нідерланди) / FC Dynamo Kyiv - AZ Alkmaar / 2 + 2 (15.09.2020) DVB UKR


Телеканал: 2+2
Опис:
15 вересня 2020 року, 20:00 (МСК)

НСК Олімпійський

Головний суддя Орель Гринфельд

Помічники судді Рой Хассан, Ідан Яркон

Запасний суддя Галь Лейбович
Тривалість:
01:48:11
Якість: DVB
Відео:
кодек:
розмір кадру: 720 x 576
бітрейт: ~2200 кб/с

Аудіо:
мова: українська
переклад: одноголосий закадровий | Володимир Зверов
кодек: MP2
бітрейт: 192 кб/с
Склади:






Скріншоти






Info
Код:
General
Complete name                            : Dynamo Kyiv-AZ  (15.09.2020) DVB [ukr].
Format                                   :
Format version                           : Version 4
File size                                : 1.83 GiB
Duration                                 : 1 h 48 min
Overall bit rate                         : 2 428 kb/s
Encoded date                             : UTC 2020-09-15 19:01:23
Writing application                      : v18.0.0 ('Apricity') 64-bit
Writing library                          : libebml v1.3.5 + v1.4.8 / Lavf54.63.104

Video
ID                                       : 1
Format                                   : AVC
Format/Info                              : Advanced Video Codec
Format profile                           : [email protected]
Format settings                          : CABAC / 4 Ref Frames
Format settings, CABAC                   : Yes
Format settings, RefFrames               : 4 frames
Codec ID                                 : V_MPEG4/ISO/AVC
Duration                                 : 1 h 48 min
Bit rate                                 : 2 234 kb/s
Width                                    : 720 pixels
Height                                   : 576 pixels
Display aspect ratio                     : 16:9
Original display aspect ratio            : 16:9
Frame rate mode                          : Constant
Frame rate                               : 25.000 FPS
Standard                                 : PAL
Color space                              : YUV
Chroma subsampling                       : 4:2:0
Bit depth                                : 8 bits
Scan type                                : MBAFF
Scan type, store method                  : Interleaved fields
Scan order                               : Top Field First
Bits/(Pixel*Frame)                       : 0.215
Stream size                              : 1.69 GiB (92%)
Default                                  : No
Forced                                   : No
Color range                              : Limited
Color primaries                          : BT.601 PAL
Transfer characteristics                 : BT.470 System B/G
Matrix coefficients                      : BT.470 System B/G

Audio
ID                                       : 2
Format                                   : MPEG Audio
Format version                           : Version 1
Format profile                           : Layer 2
Codec ID                                 : A_MPEG/L2
Codec ID/Hint                            : MP2
Duration                                 : 1 h 48 min
Bit rate mode                            : Constant
Bit rate                                 : 192 kb/s
Channel(s)                               : 2 channels
Sampling rate                            : 48.0 kHz
Frame rate                               : 41.667 FPS (1152 SPF)
Compression mode                         : Lossy
Stream size                              : 149 MiB (8%)
Language                                 : Ukrainian
Default                                  : Yes
Forced                                   : No
Джерело:
Особиста оцінка: 7 - моїй подрузі не сподобалося


Золотий реліз (завантажене не впливає на рейтинг)
 Трекер:    Зареєстрований   

Завантажити / скачати торрент



відео для новачків



 Зареєстрований:   2020-09-17 13:43
 Розмір:   1.83 GB 
 Оцінка:   9.3/10 (Голосів: 3)
   
Ваш часовий пояс: GMT + 2 Години

Нова тема   Відповісти