Танцюй серцем / Let's Dance (2019) 1080p Ukr/Fre | sub Eng

Нові коментарі

Нова тема   Відповісти
Автор Повідомлення
Anonymous 







2020-09-17 12:41  
Танцюй серцем / Let's Dance (2019) 1080p Ukr/Fre | sub Eng


Жанр: драма, комедія, музика
Країна: Франція, Бельгія





Кінокомпанія: Empreinte Cinéma, Pathé, Vertigo
Режисер: Ладіслас Шолла
Актори: Райан Бенсетті, Алексія Джордано, Гійом де Тонкедек, Мехді Керкуш, Лайн Рено, Фіорелла КампанеллаЛаура Дефретен, Ніколя Ушар

Сюжет:
Пристрасть Джозефа до хіп-хоп-танців змушує його відмовитися від роботи в сімейній фірмі і переїхати до Парижа в пошуках кращої долі. Разом зі своєю подругою Еммою і кращим другом Карімом він приєднується до команди, сформованої відомим паризьким брейкером Юрі, щоб спробувати виграти міжнародний конкурс.


Тривалість: 01:48:51
Якість: 1080p

Відео:
кодек:
розмір кадру: 1920x804
бітрейт: ~18900 кб/с

Аудіо # 1:
мова: українська
переклад: професійний дубльований
кодек: 5.1
бітрейт: 384 кб/с

Аудіо # 2:
мова: французька
переклад: оригінал
кодек: 5.1
бітрейт: 640 кб/с

Субтитри:
мова: англійська
тип: програмні (м'які)
формат: *.srt
Info
General
Complete name : Let's Dance (2019) 1080p [ukr, fre].
Format :
Format version : Version 4
File size : 15.1 GiB
Duration : 1 h 48 min
Overall bit rate : 19.9 Mb/s
Movie name : Танцюй серцем / Let's Dance (2019)
Encoded date : UTC 2020-09-17 08:37:52
Writing application : v30.1.0 ('Forever And More') 64-bit
Writing library : libebml v1.3.6 + v1.4.9
Cover : Yes
Attachments : cover.jpg

Video
ID : 1
Format : AVC
Format/Info : Advanced Video Codec
Format profile : [email protected]
Format settings : CABAC / 5 Ref Frames
Format settings, CABAC : Yes
Format settings, RefFrames : 5 frames
Codec ID : V_MPEG4/ISO/AVC
Duration : 1 h 48 min
Bit rate : 18.9 Mb/s
Width : 1 920 pixels
Height : 804 pixels
Display aspect ratio : 2.40:1
Frame rate mode : Constant
Frame rate : 23.976 (24000/1001) FPS
Color space : YUV
Chroma subsampling : 4:2:0
Bit depth : 8 bits
Scan type : Progressive
Bits/(Pixel*Frame) : 0.510
Stream size : 14.3 GiB (95%)
Writing library : core 148 r2705kMod 3f5ed56
Encoding settings : cabac=1 / ref=5 / deblock=1:-2:-2 / analyse=0x3:0x133 / me=umh / subme=10 / psy=1 / fade_compensate=0.00 / psy_rd=1.00:0.00 / mixed_ref=1 / me_range=32 / chroma_me=1 / trellis=2 / 8x8dct=1 / cqm=0 / deadzone=21,11 / fast_pskip=0 / chroma_qp_offset=-2 / threads=24 / lookahead_threads=4 / sliced_threads=0 / nr=0 / decimate=0 / interlaced=0 / bluray_compat=0 / constrained_intra=0 / fgo=0 / bframes=9 / b_pyramid=2 / b_adapt=2 / b_bias=0 / direct=3 / weightb=1 / open_gop=0 / weightp=2 / keyint=240 / keyint_min=23 / scenecut=40 / intra_refresh=0 / rc_lookahead=50 / rc=crf / mbtree=0 / crf=16.8000 / qcomp=0.60 / qpmin=0 / qpmax=51 / qpstep=4 / vbv_maxrate=50000 / vbv_bufsize=62500 / crf_max=0.0 / nal_hrd=none / filler=0 / ip_ratio=1.40 / pb_ratio=1.30 / aq=3:0.80
Language : French
Default : Yes
Forced : No

Audio #1
ID : 2
Format : AC-3
Format/Info : Audio Coding 3
Commercial name : Dolby Digital
Codec ID : A_AC3
Duration : 1 h 48 min
Bit rate mode : Constant
Bit rate : 384 kb/s
Channel(s) : 6 channels
Channel layout : L R C LFE Ls Rs
Sampling rate : 48.0 kHz
Frame rate : 31.250 FPS (1536 SPF)
Bit depth : 16 bits
Compression mode : Lossy
Stream size : 299 MiB (2%)
Title : 5.1 | 384
Language : Ukrainian
Service kind : Complete Main
Default : Yes
Forced : No

Audio #2
ID : 3
Format : AC-3
Format/Info : Audio Coding 3
Commercial name : Dolby Digital
Codec ID : A_AC3
Duration : 1 h 48 min
Bit rate mode : Constant
Bit rate : 640 kb/s
Channel(s) : 6 channels
Channel layout : L R C LFE Ls Rs
Sampling rate : 48.0 kHz
Frame rate : 31.250 FPS (1536 SPF)
Bit depth : 16 bits
Compression mode : Lossy
Stream size : 498 MiB (3%)
Title : 5.1 | 640
Language : French
Service kind : Complete Main
Default : No
Forced : No

Text
ID : 4
Format : UTF-8
Codec ID : S_TEXT/UTF8
Codec ID/Info : UTF-8 Plain Text
Duration : 1 h 42 min
Bit rate : 43 b/s
Count of elements : 1002
Stream size : 32.4 KiB (0%)
Title : Full
Language : English
Default : No
Forced : No

Menu
00:00:00.000 : :Chapter 01
00:08:15.745 : :Chapter 02
00:18:32.361 : :Chapter 03
00:26:43.018 : :Chapter 04
00:37:53.354 : :Chapter 05
00:50:26.732 : :Chapter 06
01:01:34.190 : :Chapter 07
01:13:40.624 : :Chapter 08
01:19:26.219 : :Chapter 09
01:29:08.926 : :Chapter 10
01:35:54.707 : :Chapter 11
01:42:22.427 : :Chapter 12
Скріншоти


Джерело:
Особиста оцінка: 9 - давно не бачив настільки якісне кіно


 Трекер:    Зареєстрований   

Завантажити / скачати фільм українською



відео для новачків



 Зареєстрований:   2020-09-17 12:41
 Розмір:   15.13 GB 
 Оцінка фільму:   8/10 (Голосів: 1)
   
Інші релізи
   Танцюй серцем / Let's Dance (2019) AVC Ukr/Fre | Sub Eng 11FrYkT  8 / 0   2.25 GB   2020-09-18 20:40 
   Танцюй серцем / Let's Dance (2019) Remux 1080p Ukr/Fre | sub Eng antik_2008  4 / 0   29.3 GB   2020-09-17 13:57 
   Танцюй серцем / Let's Dance (2019) antik_2008  10 / 1   1.46 GB   2020-09-17 13:27 
   Танцюй серцем / Let's Dance (2019) 720p Ukr/Fre | sub Eng antik_2008  13 / 0   5.31 GB   2020-09-17 12:41 
Ваш часовий пояс: GMT + 2 Години

Нова тема   Відповісти