Need for Speed: Жага швидкості / Need for Speed (2014) [Open Matte] 1080p Ukr/Eng | Sub Eng

Нові коментарі

Нова тема   Відповісти
Автор Повідомлення
Alukret 
Свій


З нами з: 11.06.14
Востаннє: 29.09.20
Повідомлень: 77

2020-09-17 10:51  
Need for Speed: Жага швидкості / Need for Speed (2014) [Open Matte] 1080p Ukr/Eng | Sub Eng

Need for Speed: Жага швидкості / Need for Speed (2014) [Open Matte] 1080p Ukr/Eng | Sub Eng


Жанр: екшн, кримінальний, драма, трилер
Країна: США, Філіпіни, Ірландія, Великобританія



Кінокомпанія: DreamWorks SKG, Reliance Entertainment, Electronic Arts
Режисер: Скотт Во / Scott Waugh
Актори: Аарон Пол / Aaron Paul, Домінік Купер / Dominic Cooper, Імоджен Путс / Imogen Poots, Дакота Джонсон / Dakota Johnson, Майкл Кітон / Michael Keaton, Рамон Родріґес / Ramon Rodriguez, Нік Чінланд / Nick Chinlund та інші

Сюжет:
Відсидівши у в'язниці за злочин, якого він не скоював, автомеханік і вуличний гонщик Тобі виходить на волю сповнений рішучості помститися тим, хто його підставив...


Тривалість: 02:10:41
Якість:
Відео:
кодек:
розмір кадру: 1920 х 1080
бітрейт: 5165 кб/с
примітка: локалізований відеоряд був замінений на оригінальний на 0:00:38, 0:00:51, 0:37:57, 2:01:11, 2:04:21

Аудіо # 1:
мова: українська
переклад: професійний дубльований
кодек: AC-3 2.0
бітрейт: 192 кб/с

Аудіо # 2:
мова: англійська
переклад: оригінал
кодек: 5.1
бітрейт: 1536 кб/с

Субтитри (Full):
мова: англійська
тип: програмні (м'які)
формат: *.srt
Порівняння кадрів Open Matte 16:9 (1.78:1) та Blu-Ray (2.39:1)



Info
Код:
General
Unique ID                                : 244987560215886172078035368915063307686 (0xB84EE34851107A0BA9A11051E4687DA6)
Complete name                            : Need For Speed (2014) [Open Matte] 1080p [UKR_ENG] [Hurtom].
Format                                   :
Format version                           : Version 4
File size                                : 6.27 GiB
Duration                                 : 2 h 10 min
Overall bit rate                         : 6 868 kb/s
Movie name                               : Need For Speed (2014) [Open Matte] 1080p [UKR_ENG] [Hurtom]
Encoded date                             : UTC 2020-09-16 22:37:03
Writing application                      : v44.0.0 ('Domino') 64-bit
Writing library                          : libebml v1.3.10 + v1.5.2

Video
ID                                       : 1
Format                                   : AVC
Format/Info                              : Advanced Video Codec
Format profile                           : [email protected]
Format settings                          : CABAC / 4 Ref Frames
Format settings, CABAC                   : Yes
Format settings, Reference frames        : 4 frames
Codec ID                                 : V_MPEG4/ISO/AVC
Duration                                 : 2 h 10 min
Bit rate                                 : 5 165 kb/s
Width                                    : 1 920 pixels
Height                                   : 1 080 pixels
Display aspect ratio                     : 16:9
Frame rate mode                          : Constant
Frame rate                               : 23.976 (24000/1001) FPS
Color space                              : YUV
Chroma subsampling                       : 4:2:0
Bit depth                                : 8 bits
Scan type                                : Progressive
Bits/(Pixel*Frame)                       : 0.104
Stream size                              : 4.71 GiB (75%)
Title                                    : AVC / 1080p / 5165 kbps
Default                                  : Yes
Forced                                   : No
Color range                              : Limited
Color primaries                          : BT.709
Transfer characteristics                 : BT.709
Matrix coefficients                      : BT.709

Audio #1
ID                                       : 2
Format                                   : AC-3
Format/Info                              : Audio Coding 3
Commercial name                          : Dolby Digital
Codec ID                                 : A_AC3
Duration                                 : 2 h 10 min
Bit rate mode                            : Constant
Bit rate                                 : 192 kb/s
Channel(s)                               : 2 channels
Channel layout                           : L R
Sampling rate                            : 48.0 kHz
Frame rate                               : 31.250 FPS (1536 SPF)
Bit depth                                : 16 bits
Compression mode                         : Lossy
Delay relative to video                  : 2 ms
Stream size                              : 179 MiB (3%)
Title                                    : AC-3 / 2.0 / 192 kbps / DUB / LineIn
Language                                 : Ukrainian
Service kind                             : Complete Main
Default                                  : Yes
Forced                                   : No

Audio #2
ID                                       : 3
Format                                   :
Format/Info                              : Digital Theater Systems
Codec ID                                 : A_DTS
Duration                                 : 2 h 10 min
Bit rate mode                            : Constant
Bit rate                                 : 1 509 kb/s
Channel(s)                               : 6 channels
Channel layout                           : C L R Ls Rs LFE
Sampling rate                            : 48.0 kHz
Frame rate                               : 93.750 FPS (512 SPF)
Bit depth                                : 24 bits
Compression mode                         : Lossy
Delay relative to video                  : 2 ms
Stream size                              : 1.38 GiB (22%)
Title                                    : / 5.1 / 1536 kbps
Language                                 : English
Default                                  : No
Forced                                   : No

Text
ID                                       : 4
Format                                   : UTF-8
Codec ID                                 : S_TEXT/UTF8
Codec ID/Info                            : UTF-8 Plain Text
Duration                                 : 2 h 2 min
Bit rate                                 : 48 b/s
Count of elements                        : 1361
Stream size                              : 43.1 KiB (0%)
Title                                    : Full
Language                                 : English
Default                                  : No
Forced                                   : No

Menu
00:00:00.000                             : en:00:00:00.000
00:03:54.734                             : en:00:03:54.734
00:07:49.761                             : en:00:07:49.761
00:14:28.034                             : en:00:14:28.034
00:20:43.534                             : en:00:20:43.534
00:26:18.160                             : en:00:26:18.160
00:28:45.974                             : en:00:28:45.974
00:37:46.473                             : en:00:37:46.473
00:42:07.608                             : en:00:42:07.608
00:50:33.614                             : en:00:50:33.614
00:56:00.482                             : en:00:56:00.482
01:05:09.864                             : en:01:05:09.864
01:12:09.325                             : en:01:12:09.325
01:18:21.030                             : en:01:18:21.030
01:25:07.144                             : en:01:25:07.144
01:32:55.653                             : en:01:32:55.653
01:36:38.084                             : en:01:36:38.084
01:39:49.442                             : en:01:39:49.442
01:49:47.873                             : en:01:49:47.873
01:55:41.685                             : en:01:55:41.685
02:02:22.752                             : en:02:02:22.752

Скріншоти


Джерело: Rutor.info &
Особиста оцінка: 8 - мені сподобалося


 Трекер:    Зареєстрований   

Завантажити / скачати фільм українською



відео для новачків



 Зареєстрований:   2020-09-17 10:51
 Розмір:   6.27 GB 
 Оцінка фільму:   7/10 (Голосів: 4)
   
Nahalist 
VIP


З нами з: 13.12.13
Востаннє: 30.09.20
Повідомлень: 300

2020-09-17 23:20  
ого, не кисло, велика робота зроблена, це зведення звуку не так то просто робити
Alukret 
Свій


З нами з: 11.06.14
Востаннє: 29.09.20
Повідомлень: 77

2020-09-18 23:24  
Nahalist написано:
ого, не кисло, велика робота зроблена, це зведення звуку не так то просто робити

Звук я не зводив, лише прибрав кілька секунд з локалізованого відеоряду і замість них поставив кілька секунд з оригінального відеоряду з Blu-Ray. От і все.

Ваш часовий пояс: GMT + 2 Години

Нова тема   Відповісти