Битва за мир (Галактична війна) / Farscape: The Peacekeeper Wars (2004) AVC 2xUkr/Eng | sub Eng

Нові коментарі

Нова тема   Відповісти
Автор Повідомлення
Arsenfpu 
Відео Гуртом - фільмокрай
Відео Гуртом - фільмокрай


З нами з: 30.04.09
Востаннє: 28.09.20
Повідомлень: 7255

2020-09-17 00:28  
Битва за мир (Галактична війна) / Farscape: The Peacekeeper Wars (2004) AVC 2xUkr/Eng | sub Eng

Битва за мир (Галактична війна) / Farscape: The Peacekeeper Wars (2004) AVC 2xUkr/Eng | sub Eng


Жанр: екшн, пригодницький, драма, фантастика
Країна: США, Австралія



Кінокомпанія: Jim Henson Company, The, Jim Henson Productions
Режисер: Брайан Хенсон
Актори: Бен Браудер, Клаудія Блек, Ентоні Сімко, Джіджі Еджлі, Уейн Пігров, Рейлі Хілл, Мелісса Яффер, Пол Годдард, Теммі Макінтош

Сюжет:
Агресивна Скарранська Імперія почала повномасштабну галактичну війну. Просуваючись від системи до системи, їхні бойові кораблі націлилися на Союз Миротворців. У Миротворців залишилася лише одна надія на землянина Джона Крайтона, разом зі своєю дружиною-інопланетянкою і їх ще не народженою дитиною втягнутого в цю галактику крізь космічну лійку. Тепер для Крайтона, що опинився «не в тому місці не в той час», настав час віддячити своїм рятівникам. Не таке вже й легке завдання з урахуванням того, що йому потрібно врятувати цілу расу, вступити в сутичку із самими злісними істотами у Всесвіті й створити нову зброю відплати. І хоча Крайтон не починав цю війну, закінчити її може тільки він ...


Тривалість: 02:56:20
Якість:
Відео:
кодек:
розмір кадру: 1 024 х 576
бітрейт: 2 500 кб/с

Аудіо # 1:
мова: українська
переклад: багатоголосий закадровий
кодек: 2.0
бітрейт: 192 кб/с

Аудіо # 2:
мова: українська
переклад: багатоголосий закадровий (з 5.1)
кодек: 2.0
бітрейт: 192 кб/с

Аудіо # 3:
мова: англійська
переклад: оригінал
кодек: 2.0
бітрейт: 192 кб/с

Субтитри:
мова: англійська
тип: програмні (м'які)
формат: *.srt
Скріншоти














Про файл
General
Unique ID : 210632422433926578293082477675503557500 (0x9E765436E1C779B590840FE7C6FE1B7C)
Complete name : C:\Farscape. The Peacekeeper Wars (2004) [2xUkr,Eng] AVC [Hurtom].
Format :
Format version : Version 4 / Version 2
File size : 3.79 GiB
Duration : 2 h 56 min
Overall bit rate : 3 078 kb/s
Movie name : Галактична війна / Farscape: The Peacekeeper Wars (2004)
Encoded date : UTC 2020-09-16 19:37:17
Writing application : v21.0.0 ('Tardigrades Will Inherit The Earth') 32-bit
Writing library : libebml v1.3.5 + v1.4.8
Cover : Yes
Attachments : cover.jpg

Video
ID : 1
Format : AVC
Format/Info : Advanced Video Codec
Format profile : [email protected]
Format settings, CABAC : Yes
Format settings, ReFrames : 8 frames
Codec ID : V_MPEG4/ISO/AVC
Duration : 2 h 56 min
Bit rate : 2 500 kb/s
Width : 1 024 pixels
Height : 576 pixels
Display aspect ratio : 16:9
Frame rate mode : Constant
Frame rate : 25.000 FPS
Color space : YUV
Chroma subsampling : 4:2:0
Bit depth : 8 bits
Scan type : Progressive
Bits/(Pixel*Frame) : 0.170
Stream size : 3.08 GiB (81%)
Writing library : core 157 r2969 d4099dd
Encoding settings : cabac=1 / ref=8 / deblock=1:-1:-1 / analyse=0x3:0x133 / me=umh / subme=10 / psy=1 / psy_rd=1.00:0.15 / mixed_ref=1 / me_range=32 / chroma_me=1 / trellis=2 / 8x8dct=1 / cqm=0 / deadzone=21,11 / fast_pskip=0 / chroma_qp_offset=-3 / threads=6 / lookahead_threads=1 / sliced_threads=0 / nr=0 / decimate=1 / interlaced=0 / bluray_compat=0 / constrained_intra=0 / bframes=6 / b_pyramid=2 / b_adapt=2 / b_bias=0 / direct=3 / weightb=1 / open_gop=0 / weightp=2 / keyint=250 / keyint_min=25 / scenecut=40 / intra_refresh=0 / rc_lookahead=60 / rc=2pass / mbtree=1 / bitrate=2500 / ratetol=1.0 / qcomp=0.60 / qpmin=0 / qpmax=69 / qpstep=4 / cplxblur=20.0 / qblur=0.5 / vbv_maxrate=31250 / vbv_bufsize=31250 / nal_hrd=none / filler=0 / ip_ratio=1.40 / aq=1:1.00
Default : Yes
Forced : No

Audio #1
ID : 2
Format : AC-3
Format/Info : Audio Coding 3
Mode extension : CM (complete main)
Format settings, Endianness : Big
Codec ID : A_AC3
Duration : 2 h 56 min
Bit rate mode : Constant
Bit rate : 192 kb/s
Channel(s) : 2 channels
Channel positions : Front: L R
Sampling rate : 48.0 kHz
Frame rate : 31.250 FPS (1536 spf)
Compression mode : Lossy
Stream size : 242 MiB (6%)
Title : amc
Language : Ukrainian
Default : Yes
Forced : Yes

Audio #2
ID : 3
Format : AC-3
Format/Info : Audio Coding 3
Mode extension : CM (complete main)
Format settings, Endianness : Big
Codec ID : A_AC3
Duration : 2 h 56 min
Bit rate mode : Constant
Bit rate : 192 kb/s
Channel(s) : 2 channels
Channel positions : Front: L R
Sampling rate : 48.0 kHz
Frame rate : 31.250 FPS (1536 spf)
Compression mode : Lossy
Stream size : 242 MiB (6%)
Title : КІТ
Language : Ukrainian
Default : No
Forced : No

Audio #3
ID : 4
Format : AC-3
Format/Info : Audio Coding 3
Mode extension : CM (complete main)
Format settings, Endianness : Big
Codec ID : A_AC3
Duration : 2 h 56 min
Bit rate mode : Constant
Bit rate : 192 kb/s
Channel(s) : 2 channels
Channel positions : Front: L R
Sampling rate : 48.0 kHz
Frame rate : 31.250 FPS (1536 spf)
Compression mode : Lossy
Stream size : 242 MiB (6%)
Language : English
Default : No
Forced : No

Text
ID : 5
Format : UTF-8
Codec ID : S_TEXT/UTF8
Codec ID/Info : UTF-8 Plain Text
Duration : 2 h 54 min
Bit rate : 61 b/s
Count of elements : 2417
Stream size : 79.0 KiB (0%)
Language : English
Default : Yes
Forced : No
Джерело:
За другу доріжку дякую пану urij546724
Особиста оцінка: не дивився


Срібний реліз (на рейтинг впливає 50% завантаженого)
 Трекер:    Зареєстрований   

Завантажити / скачати фільм українською



відео для новачків



 Зареєстрований:   2020-09-17 00:28
 Розмір:   3.79 GB 
 Оцінка фільму:   9.1/10 (Голосів: 10)
   
21jumpstreet 
VIP


З нами з: 03.07.12
Востаннє: 28.09.20
Повідомлень: 1245

2020-09-17 05:25  
Цитата:
Jim Henson Company, The, Jim Henson Productions

А де мапети??? Певно не завезли!

muhinder 
Новенький


З нами з: 17.06.10
Востаннє: 27.09.20
Повідомлень: 7

2020-09-17 10:33  
21jumpstreet написано:
А де мапети??? Певно не завезли!

Ти що, у фарскейпі там крутезний ляльковий персонаж, всім мапетам мапет))))

Arsenfpu буде тільки "Битва за мир", чи решта серіалу також?

Arsenfpu 
Відео Гуртом - фільмокрай
Відео Гуртом - фільмокрай


З нами з: 30.04.09
Востаннє: 28.09.20
Повідомлень: 7255

2020-09-17 10:38  
muhinder
Зосередження на конкретному серіалі не маю. Був звук - зробив реліз Happy

gromna 
Частий відвідувач


З нами з: 21.11.11
Востаннє: 21.09.20
Повідомлень: 34

2020-09-17 22:19  
Чудове завершення серіалу. Дякую за переклад рідною - один із моїх найулюбленіших фільмів-фантастик!
midnight_man 
Свій


З нами з: 13.10.09
Востаннє: 26.09.20
Повідомлень: 125

2020-09-18 19:17  
рейтинг зашкалює. але по скрінам щось не дуже. підкажіть, будь-ласка, чи варто завантажувати?
Zmiin 
Новенький


З нами з: 05.06.17
Востаннє: 27.09.20
Повідомлень: 6

2020-09-18 19:36  
Цитата:
рейтинг зашкалює. але по скрінам щось не дуже. підкажіть, будь-ласка, чи варто завантажувати?

Таке ж саме враження ))
Спробую подивитись

тс03 
Новенький


З нами з: 11.10.15
Востаннє: 19.09.20
Повідомлень: 10

2020-09-19 09:09  
Без перегляду серіалу нема ніякого сенсу дивитись.

ПС, А навіщо назву було спотворювати?

Arsenfpu 
Відео Гуртом - фільмокрай
Відео Гуртом - фільмокрай


З нами з: 30.04.09
Востаннє: 28.09.20
Повідомлень: 7255

2020-09-19 09:39  
тс03 написано:
А навіщо назву було спотворювати?

Це ви про що?

Crayton 
Новенький


З нами з: 18.03.11
Востаннє: 28.09.20
Повідомлень: 2

2020-09-22 00:33  
Цей фільм - завершення сюжету серіалу Farscape. Тож дивитись його у відриві немає жодного сенсу
Ваш часовий пояс: GMT + 2 Години

Нова тема   Відповісти