Три пера / Die drei Federn (2014) 1080p Ukr/Ger

Нові коментарі

Нова тема   Відповісти
Автор Повідомлення
Anonymous 







2020-09-17 00:24  
Три пера / Die drei Federn (2014) 1080p Ukr/Ger

Три пера / Die drei Federn (2014) 1080p Ukr/Ger
DVD



Жанр: сімейний, мелодрама, казка
Країна: Німеччина



Кінокомпанія: TV-60 Filmproduktion, Bayerischer Rundfunk (BR)
Режисер: Су Турхан
Актори: Скай Дюмон, Яннік Шуманн, Міхаель Шьонборн, Кіра Софіа Каре, Емануель Фітц, Матіас Келле, Штефан Цаш, Тобіас Крель, Ютта Шпайдель, Ґьоц Отто

Сюжет:
Добрий король справедливо править своїми володіннями. І у нього є три сини. Двоє з яких виросли мужніми та кмітливими, вони зможуть взяти правління королівством у свої руки, коли батько помре. А от молодший син Густав з малечку ріс без особливого бажання ставати правителем.
Король вирішив, що кожен з його синів має спробувати себе у справедливій боротьбі за корону. Тому він вигадує ряд складних випробувань для синів, аби ті змогли довести свою спроможність правити королівством.
Хто з принців зможе пройти усі складні випробування? І хто ж стане новим королем?


Тривалість: 00:58:29
Якість:
Відео:
кодек:
розмір кадру: 1920 х 1080
бітрейт: 6484 кб/с

Аудіо # 1:
мова: українська
переклад: професійний дубльований
кодек: 2.0
бітрейт: 192 кб/с

Аудіо # 2:
мова: німецька
переклад: оригінал
кодек: 2.0
бітрейт: 192 кб/с

Джерело озвучення:

За запис звуку з ТБ дякуємо пану Bohdan237
Звук взято з релізу
Info
Код:
General
Unique ID                                : 154564680318808495091089802361383149052 (0x7448131A1A96E96F46DF4FC9EA27DDFC)
Complete name                            : Die drei Federn (2014) 1080p [Ukr_Ger] [Hurtom].
Format                                   :
Format version                           : Version 4
File size                                : 2.81 GiB
Duration                                 : 58 min 29 s
Overall bit rate mode                    : Variable
Overall bit rate                         : 6 870 kb/s
Movie name                               : Три пера (2014)
Encoded date                             : UTC 2020-09-16 20:04:38
Writing application                      : v50.0.0 ('Awakenings') 64-bit
Writing library                          : libebml v1.4.0 + v1.6.2
Cover                                    : Yes
Attachments                              : cover.jpg

Video
ID                                       : 1
Format                                   : AVC
Format/Info                              : Advanced Video Codec
Format profile                           : [email protected]
Format settings                          : CABAC / 2 Ref Frames
Format settings, CABAC                   : Yes
Format settings, Reference frames        : 2 frames
Codec ID                                 : V_MPEG4/ISO/AVC
Duration                                 : 58 min 29 s
Bit rate mode                            : Variable
Bit rate                                 : 6 484 kb/s
Maximum bit rate                         : 8 200 kb/s
Width                                    : 1 920 pixels
Height                                   : 1 080 pixels
Display aspect ratio                     : 16:9
Frame rate mode                          : Constant
Frame rate                               : 50.000 FPS
Color space                              : YUV
Chroma subsampling                       : 4:2:0
Bit depth                                : 8 bits
Scan type                                : Progressive
Bits/(Pixel*Frame)                       : 0.063
Stream size                              : 2.65 GiB (94%)
Language                                 : German
Default                                  : Yes
Forced                                   : No

Audio #1
ID                                       : 2
Format                                   : AC-3
Format/Info                              : Audio Coding 3
Commercial name                          : Dolby Digital
Codec ID                                 : A_AC3
Duration                                 : 58 min 29 s
Bit rate mode                            : Constant
Bit rate                                 : 192 kb/s
Channel(s)                               : 2 channels
Channel layout                           : L R
Sampling rate                            : 48.0 kHz
Frame rate                               : 31.250 FPS (1536 SPF)
Compression mode                         : Lossy
Stream size                              : 80.3 MiB (3%)
Language                                 : Ukrainian
Service kind                             : Complete Main
Default                                  : Yes
Forced                                   : Yes

Audio #2
ID                                       : 3
Format                                   : LC
Format/Info                              : Advanced Audio Codec Low Complexity
Codec ID                                 : A_AAC-2
Duration                                 : 58 min 29 s
Bit rate                                 : 192 kb/s
Channel(s)                               : 2 channels
Channel layout                           : L R
Sampling rate                            : 48.0 kHz
Frame rate                               : 46.875 FPS (1024 SPF)
Compression mode                         : Lossy
Stream size                              : 79.0 MiB (3%)
Language                                 : German
Default                                  : No
Forced                                   : No

Скріншоти





Джерело:


 Трекер:    Зареєстрований   

Завантажити / скачати фільм українською



відео для новачків



 Зареєстрований:   2020-09-17 00:24
 Розмір:   2.81 GB 
 Оцінка фільму:   9.5/10 (Голосів: 2)
   
Інші релізи
   Три пера / Die drei Federn (2014) 720p Ukr/Ger ssTAss  1 / 0   2.09 GB   2019-12-16 18:24 
   Три пера / Die drei Federn (2014) Ukr/Ger drop_plz  2 / 0   915 MB   2018-07-11 17:58 
Ваш часовий пояс: GMT + 2 Години

Нова тема   Відповісти