Великий переполох у малому Китаї / Big Trouble In Little China (1986) 1080p H.265 Ukr/Eng | Sub Eng

Нові коментарі

Нова тема   Відповісти
Останній раз роздавалося [email protected] (2020-09-18)
Автор Повідомлення
Anonymous 







2020-09-16 21:33  
Великий переполох у малому Китаї / Big Trouble In Little China (1986) 1080p H.265 Ukr/Eng | Sub Eng

Великий переполох у малому Китаї / Big Trouble In Little China (1986) 1080p H.265 Ukr/Eng | Sub Eng


Жанр: бойовик, комедія, фентезі, пригодницький
Країна: США
Кінокомпанія: 20th Century FOX
Режисер: Джон Карпентер
Актори: Курт Расселл, Кім Кеттролл, Денніс Дан, Джеймс Хонг, Віктор Вонг, Кейт Бертон

Сюжет:
Водій вантажівки випадково стає свідком викрадення нареченої свого друга в китайському кварталі Сан-Франциско. Виявляється, що красуню викрав китайський маг похилого віку, що живе на світі вже кілька тисяч років, щоби оженитися на ній і омолодитися. Гонитви, бійки, каскад трюків і спецеффектів, певна доля іронії роблять цю пародійну феєрію надзичано захоплюючим видовищем.

Тривалість: 01:39:49
Якість:

Відео:
кодек: H.265 (HEVC)
розмір кадру: 1920 x 812
бітрейт: 12 035 кб/с
бітова глибина: 10 біт

Увага! Перед завантаженням переконайтесь, що ваш пристрій відтворення (та/або ПЗ) підтримує H.265 (HEVC)

Аудіо # 1:
мова: українська
переклад: двоголосий закадровий ,
кодек: AC-3 2.0
бітрейт: 192 кб/с

Аудіо # 2:
мова: англійська
переклад: оригінал
кодек: 5.1
бітрейт: 1510 кб/с

Субтитри # 1: (Full)
мова: англійська
тип: програмні (м'які)
формат: *.srt


Info
Код:
General
Unique ID                                : 127272441397295709963432175618896326879 (0x5FBFC7D549266202B2E470A0523270DF)
Complete name                            : Big Trouble In Little China (1986) 1080p H.265 [UKR_ENG] [Hurtom].
Format                                   :
Format version                           : Version 4
File size                                : 9.58 GiB
Duration                                 : 1 h 39 min
Overall bit rate                         : 13.7 Mb/s
Movie name                               : Великий переполох у малому Китаї / Big Trouble In Little China (1986)
Encoded date                             : UTC 2020-09-16 18:06:20
Writing application                      : v20.0.0 ('I Am The Sun') 64-bit
Writing library                          : libebml v1.3.5 + v1.4.8
Cover                                    : Yes
Attachments                              : Cover.jpg

Video
ID                                       : 1
Format                                   : HEVC
Format/Info                              : High Efficiency Video Coding
Format profile                           : Main [email protected]@High
Codec ID                                 : V_MPEGH/ISO/HEVC
Duration                                 : 1 h 39 min
Bit rate                                 : 12.0 Mb/s
Width                                    : 1 920 pixels
Height                                   : 812 pixels
Display aspect ratio                     : 2.35:1
Frame rate mode                          : Constant
Frame rate                               : 23.976 (24000/1001) FPS
Color space                              : YUV
Chroma subsampling                       : 4:2:0
Bit depth                                : 10 bits
Bits/(Pixel*Frame)                       : 0.322
Stream size                              : 8.39 GiB (88%)
Title                                    : Великий переполох у малому Китаї / Big Trouble In Little China (1986)
Writing library                          : x265 3.3+2-gbe2d82093:[Windows][GCC 10.0.1][64 bit] 10bit
Encoding settings                        : cpuid=1111039 / frame-threads=4 / numa-pools=16 / wpp / no-pmode / no-pme / no-psnr / no-ssim / log-level=2 / input-csp=1 / input-res=1920x812 / interlace=0 / total-frames=143612 / level-idc=41 / high-tier=1 / uhd-bd=0 / ref=5 / no-allow-non-conformance / no-repeat-headers / annexb / no-aud / no-hrd / info / hash=0 / no-temporal-layers / open-gop / min-keyint=23 / keyint=240 / gop-lookahead=0 / bframes=10 / b-adapt=2 / b-pyramid / bframe-bias=0 / rc-lookahead=60 / lookahead-slices=1 / scenecut=40 / hist-scenecut=0 / radl=0 / no-splice / no-intra-refresh / ctu=32 / min-cu-size=8 / rect / amp / max-tu-size=32 / tu-inter-depth=4 / tu-intra-depth=4 / limit-tu=1 / rdoq-level=2 / dynamic-rd=0.00 / no-ssim-rd / signhide / no-tskip / nr-intra=0 / nr-inter=0 / no-constrained-intra / no-strong-intra-smoothing / max-merge=5 / limit-refs=3 / limit-modes / me=3 / subme=7 / merange=57 / temporal-mvp / no-frame-dup / hme / Level / merange / L0,L1,L2=16,32,57 / weightp / weightb / no-analyze-src-pics / deblock=-3:-2 / no-sao / no-sao-non-deblock / rd=6 / selective-sao=0 / no-early-skip / rskip / rskip-edge-threshold=0.050000 / no-fast-intra / no-tskip-fast / no-cu-lossless / b-intra / no-splitrd-skip / rdpenalty=0 / psy-rd=1.00 / psy-rdoq=0.50 / no-rd-refine / no-lossless / cbqpoffs=0 / crqpoffs=0 / rc=crf / crf=20.5 / qcomp=0.68 / qpstep=4 / stats-write=0 / stats-read=0 / vbv-maxrate=50000 / vbv-bufsize=50000 / vbv-init=0.9 / crf-max=0.0 / crf-min=0.0 / ipratio=1.40 / pbratio=1.30 / aq-mode=1 / aq-strength=1.00 / no-cutree / zone-count=0 / no-strict-cbr / qg-size=32 / no-rc-grain / qpmax=69 / qpmin=0 / no-const-vbv / sar=1 / overscan=0 / videoformat=5 / range=0 / colorprim=1 / transfer=1 / colormatrix=1 / chromaloc=0 / display-window=0 / cll=0,0 / min-luma=0 / max-luma=1023 / log2-max-poc-lsb=8 / vui-timing-info / vui-hrd-info / slices=1 / no-opt-qp-pps / no-opt-ref-list-length-pps / no-multi-pass-opt-rps / scenecut-bias=0.05 / hist-threshold=0.01 / no-opt-cu-delta-qp / no-aq-motion / no-hdr10 / no-hdr10-opt / no-dhdr10-opt / no-idr-recovery-sei / analysis-reuse-level=0 / analysis-save-reuse-level=0 / analysis-load-reuse-level=0 / scale-factor=0 / refine-intra=0 / refine-inter=0 / refine-mv=1 / refine-ctu-distortion=0 / no-limit-sao / ctu-info=0 / no-lowpass-dct / refine-analysis-type=0 / copy-pic=1 / max-ausize-factor=1.0 / no-dynamic-refine / no-single-sei / no-hevc-aq / no-svt / no-field / qp-adaptation-range=1.00 / no-scenecut-aware-qpconformance-window-offsets / right=0 / bottom=0
Language                                 : English
Default                                  : Yes
Forced                                   : No
Color range                              : Limited
Color primaries                          : BT.709
Transfer characteristics                 : BT.709
Matrix coefficients                      : BT.709

Audio #1
ID                                       : 2
Format                                   : AC-3
Format/Info                              : Audio Coding 3
Commercial name                          : Dolby Digital
Codec ID                                 : A_AC3
Duration                                 : 1 h 39 min
Bit rate mode                            : Constant
Bit rate                                 : 192 kb/s
Channel(s)                               : 2 channels
Channel layout                           : L R
Sampling rate                            : 48.0 kHz
Frame rate                               : 31.250 FPS (1536 SPF)
Compression mode                         : Lossy
Stream size                              : 137 MiB (1%)
Title                                    : / 2.0 Ch / 192 kbps / DVO / 2+2, 1+1
Language                                 : Ukrainian
Service kind                             : Complete Main
Default                                  : Yes
Forced                                   : Yes

Audio #2
ID                                       : 3
Format                                   :
Format/Info                              : Digital Theater Systems
Codec ID                                 : A_DTS
Duration                                 : 1 h 39 min
Bit rate mode                            : Constant
Bit rate                                 : 1 509 kb/s
Channel(s)                               : 6 channels
Channel layout                           : C L R Ls Rs LFE
Sampling rate                            : 48.0 kHz
Frame rate                               : 93.750 FPS (512 SPF)
Bit depth                                : 24 bits
Compression mode                         : Lossy
Stream size                              : 1.05 GiB (11%)
Title                                    : / 5.1 Ch / 1509 kbps / Original
Language                                 : English
Default                                  : No
Forced                                   : No

Text
ID                                       : 4
Format                                   : UTF-8
Codec ID                                 : S_TEXT/UTF8
Codec ID/Info                            : UTF-8 Plain Text
Duration                                 : 1 h 36 min
Bit rate                                 : 48 b/s
Count of elements                        : 798
Stream size                              : 34.3 KiB (0%)
Title                                    : Full
Language                                 : English
Default                                  : No
Forced                                   : No

Menu
00:00:00.000                             : en:The Truth About Magic
00:02:31.901                             : en:The Prok Chop Express
00:06:16.751                             : en:Nothing or Double
00:08:33.596                             : en:Mao Yin
00:09:54.969                             : en:The Airport
00:12:43.053                             : en:Son of a Bitch Must Pay
00:13:57.711                             : en:Little China
00:15:15.581                             : en:The Funeral
00:17:54.823                             : en:Chinese Stand-Off
00:20:17.382                             : en:The Storms
00:24:28.842                             : en:China Is Here
00:28:07.811                             : en:The White Tiger
00:30:47.136                             : en:Re-Abducted
00:32:43.878                             : en:Plan B
00:34:47.335                             : en:Wing Kong Exchange
00:36:02.243                             : en:Mr.Egg Shen
00:36:45.578                             : en:Elevator to Hell
00:37:40.591                             : en:Metaphysical Salad Bar
00:38:29.932                             : en:Hell of the Upside-Down Sinners
00:40:11.700                             : en:The Other David Lo Pan
00:44:18.030                             : en:Thunder's Guided Tour
00:46:10.017                             : en:Myths and Legends
00:49:34.596                             : en:Lo Pan's Lament
00:51:03.560                             : en:Freeing the Captives
00:56:37.727                             : en:We May Be Trapped
00:59:45.540                             : en:Two Girls with Green Eyes
01:01:43.116                             : en:Plan C
01:02:56.564                             : en:Lo Pan Don Juan
01:04:29.031                             : en:The Bog of the Dead Trees
01:06:05.586                             : en:The Burning Blade
01:09:35.796                             : en:It Will Come Out No More!
01:10:59.338                             : en:More Bad News
01:12:54.244                             : en:The Spirit Path
01:15:48.627                             : en:Here Comes the Groom
01:16:19.992                             : en:Time for the Medicine
01:18:00.717                             : en:Crashing the Party
01:25:52.021                             : en:Orient Meets Accident
01:27:13.811                             : en:The Way of All Flesh
01:28:04.529                             : en:Heavy Thunder
01:29:16.351                             : en:Lightning Strikes
01:31:14.802                             : en:6.9 on the Richter Scale
01:32:58.823                             : en:Order Out of Chaos
01:35:25.720                             : en:Dark and Stormy Night
01:36:09.472                             : en:End Credits
Світлини




Джерело: &
Особиста оцінка: 0 - не дивився


Срібний реліз (на рейтинг впливає 50% завантаженого)
 Трекер:    Зареєстрований   

Завантажити / скачати фільм українською



відео для новачків



 Зареєстрований:   2020-09-16 21:33
 Розмір:   9.58 GB 
 Оцінка фільму:   10/10 (Голосів: 2)
   
Ваш часовий пояс: GMT + 2 Години

Нова тема   Відповісти