Соляна принцеса / Die Salzprinzessin (2015) 1080p Ukr/Ger

Нові коментарі

Нова тема   Відповісти
Автор Повідомлення
Anonymous 







2020-09-16 15:39  
Соляна принцеса / Die Salzprinzessin (2015) 1080p Ukr/Ger

Соляна принцеса / Die Salzprinzessin (2015) 1080p Ukr/Ger
DVD



Жанр: сімейний, казка
Країна: Німеччина



Кінокомпанія: Askania Media Filmproduktion GmbH
Режисер: Золтан Спіранделлі
Актори: Леоні Шарлотта Бриль, Леонард Лансінк, Елвіс Клаузен, Софія фон Кессель, Леннарт Маттіс, Олександра Мартіні, Свен Гeргер, мірилом-Саскія Пулман, Саймон Павловський, Бен Артман

Сюжет:
Сюжет казки розповідає про далеке королівство, яким править старий монарх. Він розуміє, що настав час знайти наступника трону. У короля є три доньки: старші – вередливі та самозакохані, а молодша – ніжна та далека від світського життя. Старші доньки обожнюють влаштовувати пишні бали, а от молодша обожнює прогулянки на природі.

Після однієї сімейної вечері король оголошує, що корона належатиме тій доньці, яка правильно відповість на одне його питання. Відповідь молодшої доньки настільки розлютила короля, що він прогнав її з палацу. Що відповіла донька? Та чи знайде вона своє щастя?


Тривалість: 00:58:36
Якість:
Відео:
кодек:
розмір кадру: 1920 х 1080
бітрейт: 6490 кб/с

Аудіо # 1:
мова: українська
переклад: професійний дубльований
кодек: 2.0
бітрейт: 192 кб/с

Аудіо # 2:
мова: німецька
переклад: оригінал
кодек: 2.0
бітрейт: 192 кб/с

Джерело озвучення:
Info
Код:
General
Unique ID                                : 311481466957723050697936055490229490246 (0xEA5525FFBDCD00AD03B26EB9FEB2D246)
Complete name                            : Die Salzprinzessin (2015) 1080p [Ukr_Ger] [Hurtom].
Format                                   :
Format version                           : Version 4
File size                                : 2.81 GiB
Duration                                 : 58 min 36 s
Overall bit rate mode                    : Variable
Overall bit rate                         : 6 876 kb/s
Movie name                               : Соляна принцеса (2015)
Encoded date                             : UTC 2020-09-16 12:07:08
Writing application                      : v50.0.0 ('Awakenings') 64-bit
Writing library                          : libebml v1.4.0 + v1.6.2
Cover                                    : Yes
Attachments                              : cover.jpg

Video
ID                                       : 1
Format                                   : AVC
Format/Info                              : Advanced Video Codec
Format profile                           : [email protected]
Format settings                          : CABAC / 2 Ref Frames
Format settings, CABAC                   : Yes
Format settings, Reference frames        : 2 frames
Format settings, GOP                     : M=1, N=2
Codec ID                                 : V_MPEG4/ISO/AVC
Duration                                 : 58 min 36 s
Bit rate mode                            : Variable
Bit rate                                 : 6 490 kb/s
Maximum bit rate                         : 8 200 kb/s
Width                                    : 1 920 pixels
Height                                   : 1 080 pixels
Display aspect ratio                     : 16:9
Frame rate mode                          : Constant
Frame rate                               : 50.000 FPS
Color space                              : YUV
Chroma subsampling                       : 4:2:0
Bit depth                                : 8 bits
Scan type                                : Progressive
Bits/(Pixel*Frame)                       : 0.063
Stream size                              : 2.66 GiB (94%)
Language                                 : German
Default                                  : Yes
Forced                                   : No

Audio #1
ID                                       : 2
Format                                   : AC-3
Format/Info                              : Audio Coding 3
Commercial name                          : Dolby Digital
Codec ID                                 : A_AC3
Duration                                 : 58 min 35 s
Bit rate mode                            : Constant
Bit rate                                 : 192 kb/s
Channel(s)                               : 2 channels
Channel layout                           : L R
Sampling rate                            : 48.0 kHz
Frame rate                               : 31.250 FPS (1536 SPF)
Compression mode                         : Lossy
Stream size                              : 80.5 MiB (3%)
Language                                 : Ukrainian
Service kind                             : Complete Main
Default                                  : Yes
Forced                                   : Yes

Audio #2
ID                                       : 3
Format                                   : LC
Format/Info                              : Advanced Audio Codec Low Complexity
Codec ID                                 : A_AAC-2
Duration                                 : 58 min 36 s
Bit rate                                 : 192 kb/s
Channel(s)                               : 2 channels
Channel layout                           : L R
Sampling rate                            : 48.0 kHz
Frame rate                               : 46.875 FPS (1024 SPF)
Compression mode                         : Lossy
Stream size                              : 79.1 MiB (3%)
Language                                 : German
Default                                  : No
Forced                                   : No

Скріншоти





Джерело:


 Трекер:    Зареєстрований   

Завантажити / скачати фільм українською



відео для новачків



 Зареєстрований:   2020-09-16 15:39
 Розмір:   2.81 GB 
 Оцінка фільму:   10/10 (Голосів: 1)
   
Інші релізи
   Соляна принцеса / Die Salzprinzessin (2015) 720p Ukr/Ger ssTAss  2 / 0   2.29 GB   2020-01-01 23:22 
   Соляна принцеса / Die Salzprinzessin (2015) Ukr/Ger Arsenfpu  4 / 0   925 MB   2018-08-18 16:12 
Ваш часовий пояс: GMT + 2 Години

Нова тема   Відповісти