Щ – ЦЕ ЩАСТЯ / H Is For Happiness (2019) 1080p Eng | Sub Ukr/Eng

Нові коментарі

Нова тема   Відповісти
Автор Повідомлення
Anonymous 







2020-09-15 19:47  
Щ – ЦЕ ЩАСТЯ / H Is For Happiness (2019) 1080p Eng | Sub Ukr/Eng



Жанр: сімейний, драма, комедія
Країна: Австралія



Кінокомпанія: Cyan Films, The Koop
Режисер: Джон Шиді
Актори: Дейзі Ексон, Веслі Паттен, Ричард Роксбурґ, Емма Бут, Джоел Джексон, Дебора Мейлмен, Міріам Марголіс

Сюжет:
Життєрадісна 12-річна дівчинка з особливим баченням світу знайомиться з дивним хлопцем, новеньким у школі. Він надихає її помирити батьків будь-якою ціною.


Тривалість: 01:42:21
Якість:
Відео:
кодек:
розмір кадру: 1916 x 802
бітрейт: 4627 кб/с

Аудіо:
мова: англійська
переклад: оригінал
кодек: 5.1
бітрейт: 384 кб/с

Субтитри:
мова: українська
тип: програмні (м'які)
формат: *.srt
переклад: офіційний з англійської

Субтитри:
мова: англійська
тип: програмні (м'які)
формат: *.srt
Скріншоти


















MI
Video
ID : 1
Format : AVC
Format/Info : Advanced Video Codec
Format profile : [email protected]
Format settings : CABAC / 5 Ref Frames
Format settings, CABAC : Yes
Format settings, Reference fra : 5 frames
Codec ID : V_MPEG4/ISO/AVC
Duration : 1 h 42 min
Bit rate : 4 627 kb/s
Width : 1 916 pixels
Height : 802 pixels
Display aspect ratio : 2.40:1
Frame rate mode : Constant
Frame rate : 23.976 (23976/1000) FPS
Color space : YUV
Chroma subsampling : 4:2:0
Bit depth : 8 bits
Scan type : Progressive
Bits/(Pixel*Frame) : 0.126
Stream size : 3.31 GiB (92%)
Language : English
Default : Yes
Forced : No
Color range : Limited
Color primaries : BT.709
Transfer characteristics : BT.709
Matrix coefficients : BT.709

Audio
ID : 2
Format : AC-3
Format/Info : Audio Coding 3
Commercial name : Dolby Digital
Codec ID : A_AC3
Duration : 1 h 42 min
Bit rate mode : Constant
Bit rate : 384 kb/s
Channel(s) : 6 channels
Channel layout : L R C LFE Ls Rs
Sampling rate : 48.0 kHz
Frame rate : 31.250 FPS (1536 SPF)
Compression mode : Lossy
Delay relative to video : -42 ms
Stream size : 281 MiB (8%)
Language : English
Service kind : Complete Main
Default : Yes
Forced : No

Text #1
ID : 3
Format : UTF-8
Codec ID : S_TEXT/UTF8
Codec ID/Info : UTF-8 Plain Text
Duration : 1 h 36 min
Bit rate : 100 b/s
Count of elements : 1273
Stream size : 71.2 KiB (0%)
Language : Ukrainian
Default : Yes
Forced : No

Text #2
ID : 4
Format : UTF-8
Codec ID : S_TEXT/UTF8
Codec ID/Info : UTF-8 Plain Text
Duration : 1 h 36 min
Bit rate : 59 b/s
Count of elements : 1365
Stream size : 41.8 KiB (0%)
Language : English
Default : No
Forced : No

Menu
00:00:00.000 : en:1
00:07:22.525 : en:2
00:14:46.635 : en:3
00:21:02.969 : en:4
00:28:22.615 : en:5
00:35:34.212 : en:6
00:42:26.873 : en:7
00:49:44.476 : en:8
00:57:10.713 : en:9
01:04:02.624 : en:10
01:12:46.898 : en:11
01:19:05.734 : en:12
01:26:12.785 : en:13
01:32:23.863 : en:14
01:38:03.076 : en:15
Джерело:
Особиста оцінка: 0 - не дивився


 Трекер:    Зареєстрований   

Завантажити / скачати фільм українською



відео для новачків



 Зареєстрований:   2020-09-15 19:47
 Розмір:   3.59 GB 
 Оцінка фільму:   10/10 (Голосів: 3)
   
bot 
робот


З нами з: 30.09.07
Востаннє: 26.05.05
Повідомлень: 26449

2020-09-15 20:16  
Тему перенесено з Фільми до форуму Фільми


Dark Invader

Ваш часовий пояс: GMT + 2 Години

Нова тема   Відповісти