Неймовірні пригоди янкі в Африці / Yankee Zulu (1993) AVC Ukr/Eng

Нові коментарі

Нова тема   Відповісти
Автор Повідомлення
Arsenfpu 
Відео Гуртом - фільмокрай
Відео Гуртом - фільмокрай


З нами з: 30.04.09
Востаннє: 26.09.20
Повідомлень: 7252

2020-09-15 15:08  
Неймовірні пригоди янкі в Африці / Yankee Zulu (1993) AVC Ukr/Eng

Неймовірні пригоди янкі в Африці / Yankee Zulu (1993) AVC Ukr/Eng


Жанр: комедія, драма
Країна: Південна Африка



Кінокомпанія: Distant Horizon, Toron Screen Corporation, Koukus Troika
Режисер: Грей Хофмайр
Актори: Леон Шустер, Джон Матшікіза, Вілсон Данстер, Террі Тріз, Мішель Боус, Скай Сворінік, Руан Мандельстам, Бобо Серітсані, Марі Майкл, Мбалі Дладла.

Сюжет:
Пустощі друзів - хлопчаків, білого африканера і чорного зулу - зробили б честь навіть легендарному Кевіну з комедії «Один вдома».
Життя надовго розлучає їх, але зустрівшись через 25 років, вони згадують дитинство - викрадають півмільйона доларів і, перетворивши в гримерці телебачення білого в чорного, а чорного на білого, ховаються від переслідувачів.


Тривалість: 01:29:40
Якість:
Відео:
кодек:
розмір кадру: 1 024 х 576
бітрейт: 2 499 кб/с

Аудіо # 1:
мова: українська
переклад: багатоголосий закадровий
кодек: 2.0
бітрейт: 192 кб/с

Аудіо # 2:
мова: англійська
переклад: оригінал
кодек: 2.0
бітрейт: 192 кб/с
Скріншоти














Про файл
General
Unique ID : 219898700104213269080975003332096705590 (0xA56EF2F9F029A99B181E2C2CD2D24436)
Complete name : C:\Yankee Zulu (1993) [Ukr,Eng] AVC [Hurtom].
Format :
Format version : Version 4 / Version 2
File size : 1.81 GiB
Duration : 1 h 29 min
Overall bit rate : 2 884 kb/s
Movie name : Неймовірні пригоди янкі в Африці / Yankee Zulu (1993)
Encoded date : UTC 2020-09-23 22:45:51
Writing application : v21.0.0 ('Tardigrades Will Inherit The Earth') 32-bit
Writing library : libebml v1.3.5 + v1.4.8
Cover : Yes
Attachments : cover.jpg

Video
ID : 1
Format : AVC
Format/Info : Advanced Video Codec
Format profile : [email protected]
Format settings, CABAC : Yes
Format settings, ReFrames : 4 frames
Codec ID : V_MPEG4/ISO/AVC
Duration : 1 h 29 min
Bit rate : 2 499 kb/s
Width : 1 024 pixels
Height : 576 pixels
Display aspect ratio : 16:9
Frame rate mode : Constant
Frame rate : 23.976 (24000/1001) FPS
Color space : YUV
Chroma subsampling : 4:2:0
Bit depth : 8 bits
Scan type : Progressive
Bits/(Pixel*Frame) : 0.177
Stream size : 1.56 GiB (87%)
Writing library : core 157 r2935 545de2f
Encoding settings : cabac=1 / ref=3 / deblock=1:-1:-1 / analyse=0x3:0x113 / me=hex / subme=7 / psy=1 / psy_rd=1.00:0.15 / mixed_ref=1 / me_range=16 / chroma_me=1 / trellis=1 / 8x8dct=1 / cqm=0 / deadzone=21,11 / fast_pskip=1 / chroma_qp_offset=-3 / threads=12 / lookahead_threads=2 / sliced_threads=0 / nr=0 / decimate=1 / interlaced=0 / bluray_compat=0 / constrained_intra=0 / bframes=3 / b_pyramid=2 / b_adapt=1 / b_bias=0 / direct=1 / weightb=1 / open_gop=0 / weightp=2 / keyint=240 / keyint_min=23 / scenecut=40 / intra_refresh=0 / rc_lookahead=40 / rc=2pass / mbtree=1 / bitrate=2499 / ratetol=1.0 / qcomp=0.60 / qpmin=0 / qpmax=69 / qpstep=4 / cplxblur=20.0 / qblur=0.5 / ip_ratio=1.40 / aq=1:1.00
Default : Yes
Forced : No

Audio #1
ID : 2
Format : AC-3
Format/Info : Audio Coding 3
Mode extension : CM (complete main)
Format settings, Endianness : Big
Codec ID : A_AC3
Duration : 1 h 29 min
Bit rate mode : Constant
Bit rate : 192 kb/s
Channel(s) : 2 channels
Channel positions : Front: L R
Sampling rate : 48.0 kHz
Frame rate : 31.250 FPS (1536 spf)
Compression mode : Lossy
Stream size : 123 MiB (7%)
Title : amc
Language : Ukrainian
Default : Yes
Forced : Yes

Audio #2
ID : 3
Format : AC-3
Format/Info : Audio Coding 3
Mode extension : CM (complete main)
Format settings, Endianness : Big
Codec ID : A_AC3
Duration : 1 h 29 min
Bit rate mode : Constant
Bit rate : 192 kb/s
Channel(s) : 2 channels
Channel positions : Front: L R
Sampling rate : 48.0 kHz
Frame rate : 31.250 FPS (1536 spf)
Compression mode : Lossy
Stream size : 123 MiB (7%)
Language : English
Default : No
Forced : No
Джерело:
Особиста оцінка: не дивився


Срібний реліз (на рейтинг впливає 50% завантаженого)
 Трекер:    Зареєстрований   

Завантажити / скачати фільм українською



відео для новачків



 Зареєстрований:   2020-09-24 02:00
 Розмір:   1.81 GB 
 Оцінка фільму:   10/10 (Голосів: 5)
   
romgur73 
Новенький


З нами з: 24.08.12
Востаннє: 25.09.20
Повідомлень: 20

2020-09-15 18:22  
я шукав цей фільм мільйон років, але не пам'ятав його назву
bot 
робот


З нами з: 30.09.07
Востаннє: 26.05.05
Повідомлень: 25610

2020-09-24 02:00  
Тему перенесено з Анонси релізів до форуму Фільми


Arsenfpu

Arsenfpu 
Відео Гуртом - фільмокрай
Відео Гуртом - фільмокрай


З нами з: 30.04.09
Востаннє: 26.09.20
Повідомлень: 7252

2020-09-24 02:01  
Зо третьої спроби телеканал показав фільм без бракованого звуку.
don pedro 
Попереджень: 1
Попереджень: 1 


З нами з: 29.06.11
Востаннє: 26.09.20
Повідомлень: 17767

2020-09-24 08:32  
Зараз би такий фільм не зняли.
robotron005 
Відео Гуртом - фільмокрай
Відео Гуртом - фільмокрай


З нами з: 29.01.09
Востаннє: 26.09.20
Повідомлень: 3367

2020-09-24 09:26  
У розшуку запис з 1+1.
Ваш часовий пояс: GMT + 2 Години

Нова тема   Відповісти