Дюймовочка / Thumbelina (1994) 1080p H.265 Ukr/Eng | Sub Eng

Нові коментарі

Нова тема   Відповісти
Автор Повідомлення
Anonymous 







2020-09-15 10:26  
Дюймовочка / Thumbelina (1994) 1080p H.265 Ukr/Eng | Sub Eng

Дюймовочка / Thumbelina (1994) 1080p H.265 Ukr/Eng | Sub Eng


Жанр: анімація, сімейний, фентезі
Країна: Ірландія, США
Кінокомпанія: Don Bluth
Режисер: Дон Блат, Ґері Ґолдмен
Актори: Джоді Бенсон, Джіно Конфорті, Барбара Кук, Вілл Раян, Джун Форей, Кеннет Марс, Ґері Імхофф, Джо Лінч, Чаро, Данні Манн, Лорен Лестер, Кендалл Каннінгем, Тауні Саншайн Ґловер, Майкл Нуньєс, Ґілберт Ґоттфрід, Пет Музік, Ніл Росс, Керол Ченнінґ, Джон Герт, Т

Сюжет:
Маленька Дюймовочка — хоробра дівчинка, що не боїться випробувань і небезпечних пригод, які можуть трапитися з нею у великому світі. Дюймовочка постійно потрапляє як не у вогонь, так у полум’я. Після багатьох халеп, загублена і одна-одненька вона стає здобиччю миші Мони, яка обіцяє їй житло і поживу на зиму, якщо вона вийде заміж за її сусіда - містера Крота. Але Дюймовочка не хоче цього робити…

Чарівна історія Ганса Христіана Андерсена "Дюймовочка" у версії відомого мультиплікатора Дона Блата і композитора, лауреата премії "Еммі", Баррі Манілоу, яка нагадає вам, що якщо ми будемо дослухатися до свого серця, то все стане можливим.

Тривалість: 01:26:32
Якість:

Відео:
кодек: H.265 (HEVC)
розмір кадру: 1920 x 1040
бітрейт: 10 287 кб/с
бітова глибина: 10 біт

Увага! Перед завантаженням переконайтесь, що ваш пристрій відтворення (та/або ПЗ) підтримує H.265 (HEVC)

Аудіо # 1:
мова: українська
переклад: багатоголосий закадровий
кодек: AC-3 2.0
бітрейт: 192 кб/с

Аудіо # 2:
мова: англійська
переклад: оригінал
кодек: 5.1
бітрейт: 1510 кб/с

Субтитри # 1-2: (Full, SDH)
мова: англійська
тип: програмні (м'які)
формат: *.srt


Info
Код:
General
Unique ID                                : 136074993429098902443580258356855865164 (0x665F1727E9273EF6F9B4F20672247F4C)
Complete name                            : Thumbelina (1994) 1080p H.265 [UKR_ENG] [Hurtom].
Format                                   :
Format version                           : Version 4
File size                                : 7.25 GiB
Duration                                 : 1 h 26 min
Overall bit rate                         : 12.0 Mb/s
Movie name                               : Дюймовочка / Thumbelina (1994)
Encoded date                             : UTC 2020-09-15 07:08:53
Writing application                      : v20.0.0 ('I Am The Sun') 64-bit
Writing library                          : libebml v1.3.5 + v1.4.8
Cover                                    : Yes
Attachments                              : Cover.jpg

Video
ID                                       : 1
Format                                   : HEVC
Format/Info                              : High Efficiency Video Coding
Format profile                           : Main [email protected]@High
Codec ID                                 : V_MPEGH/ISO/HEVC
Duration                                 : 1 h 26 min
Bit rate                                 : 10.3 Mb/s
Width                                    : 1 920 pixels
Height                                   : 1 040 pixels
Display aspect ratio                     : 1.85:1
Frame rate mode                          : Constant
Frame rate                               : 23.976 (23976/1000) FPS
Original frame rate                      : 23.976 (24000/1001) FPS
Color space                              : YUV
Chroma subsampling                       : 4:2:0
Bit depth                                : 10 bits
Bits/(Pixel*Frame)                       : 0.215
Stream size                              : 6.22 GiB (86%)
Title                                    : Дюймовочка / Thumbelina (1994)
Writing library                          : x265 3.3+1-g554c887ac:[Windows][MSVC 1924][64 bit] 10bit
Encoding settings                        : cpuid=1111039 / frame-threads=3 / numa-pools=12 / wpp / no-pmode / no-pme / no-psnr / no-ssim / log-level=2 / input-csp=1 / input-res=1920x1040 / interlace=0 / total-frames=124489 / level-idc=41 / high-tier=1 / uhd-bd=0 / ref=5 / no-allow-non-conformance / no-repeat-headers / annexb / no-aud / no-hrd / info / hash=0 / no-temporal-layers / open-gop / min-keyint=23 / keyint=240 / gop-lookahead=0 / bframes=8 / b-adapt=2 / b-pyramid / bframe-bias=0 / rc-lookahead=60 / lookahead-slices=4 / scenecut=40 / hist-scenecut=0 / radl=0 / no-splice / no-intra-refresh / ctu=32 / min-cu-size=8 / rect / amp / max-tu-size=32 / tu-inter-depth=4 / tu-intra-depth=4 / limit-tu=1 / rdoq-level=2 / dynamic-rd=0.00 / no-ssim-rd / signhide / no-tskip / nr-intra=0 / nr-inter=0 / no-constrained-intra / no-strong-intra-smoothing / max-merge=4 / limit-refs=2 / limit-modes / me=3 / subme=7 / merange=57 / temporal-mvp / no-frame-dup / no-hme / weightp / weightb / no-analyze-src-pics / deblock=-3:-3 / no-sao / no-sao-non-deblock / rd=6 / selective-sao=0 / no-early-skip / rskip / no-fast-intra / no-tskip-fast / no-cu-lossless / no-b-intra / no-splitrd-skip / rdpenalty=0 / psy-rd=2.00 / psy-rdoq=1.00 / no-rd-refine / no-lossless / cbqpoffs=0 / crqpoffs=0 / rc=crf / crf=20.0 / qcomp=0.65 / qpstep=4 / stats-write=0 / stats-read=0 / vbv-maxrate=50000 / vbv-bufsize=50000 / vbv-init=0.9 / crf-max=0.0 / crf-min=0.0 / ipratio=1.40 / pbratio=1.30 / aq-mode=1 / aq-strength=1.00 / no-cutree / zone-count=0 / no-strict-cbr / qg-size=32 / no-rc-grain / qpmax=69 / qpmin=0 / no-const-vbv / sar=1 / overscan=0 / videoformat=5 / range=0 / colorprim=1 / transfer=1 / colormatrix=1 / chromaloc=0 / display-window=0 / cll=0,0 / min-luma=0 / max-luma=1023 / log2-max-poc-lsb=8 / vui-timing-info / vui-hrd-info / slices=1 / no-opt-qp-pps / no-opt-ref-list-length-pps / no-multi-pass-opt-rps / scenecut-bias=0.05 / hist-threshold=0.01 / no-opt-cu-delta-qp / no-aq-motion / no-hdr10 / no-hdr10-opt / no-dhdr10-opt / no-idr-recovery-sei / analysis-reuse-level=0 / analysis-save-reuse-level=0 / analysis-load-reuse-level=0 / scale-factor=0 / refine-intra=0 / refine-inter=0 / refine-mv=1 / refine-ctu-distortion=0 / no-limit-sao / ctu-info=0 / no-lowpass-dct / refine-analysis-type=0 / copy-pic=1 / max-ausize-factor=1.0 / no-dynamic-refine / no-single-sei / no-hevc-aq / no-svt / no-field / qp-adaptation-range=1.00 / no-scenecut-aware-qpconformance-window-offsets / right=0 / bottom=0
Default                                  : Yes
Forced                                   : No
Color range                              : Limited
Color primaries                          : BT.709
Transfer characteristics                 : BT.709
Matrix coefficients                      : BT.709

Audio #1
ID                                       : 2
Format                                   : AC-3
Format/Info                              : Audio Coding 3
Commercial name                          : Dolby Digital
Codec ID                                 : A_AC3
Duration                                 : 1 h 26 min
Bit rate mode                            : Constant
Bit rate                                 : 192 kb/s
Channel(s)                               : 2 channels
Channel layout                           : L R
Sampling rate                            : 48.0 kHz
Frame rate                               : 31.250 FPS (1536 SPF)
Compression mode                         : Lossy
Stream size                              : 119 MiB (2%)
Title                                    : / 2.0 Ch / 192 kbps / MVO / 1+1
Language                                 : Ukrainian
Service kind                             : Complete Main
Default                                  : Yes
Forced                                   : Yes

Audio #2
ID                                       : 3
Format                                   :
Format/Info                              : Digital Theater Systems
Codec ID                                 : A_DTS
Duration                                 : 1 h 26 min
Bit rate mode                            : Constant
Bit rate                                 : 1 509 kb/s
Channel(s)                               : 6 channels
Channel layout                           : C L R Ls Rs LFE
Sampling rate                            : 48.0 kHz
Frame rate                               : 93.750 FPS (512 SPF)
Bit depth                                : 24 bits
Compression mode                         : Lossy
Stream size                              : 934 MiB (13%)
Title                                    : / 5.1 Ch / 1509 kbps / Original
Language                                 : English
Default                                  : No
Forced                                   : No

Text #1
ID                                       : 4
Format                                   : UTF-8
Codec ID                                 : S_TEXT/UTF8
Codec ID/Info                            : UTF-8 Plain Text
Duration                                 : 1 h 24 min
Bit rate                                 : 56 b/s
Count of elements                        : 1032
Stream size                              : 34.6 KiB (0%)
Title                                    : Full
Language                                 : English
Default                                  : No
Forced                                   : No

Text #2
ID                                       : 5
Format                                   : UTF-8
Codec ID                                 : S_TEXT/UTF8
Codec ID/Info                            : UTF-8 Plain Text
Duration                                 : 1 h 25 min
Bit rate                                 : 60 b/s
Count of elements                        : 1144
Stream size                              : 38.0 KiB (0%)
Title                                    : SDH
Language                                 : English
Default                                  : No
Forced                                   : No

Menu
00:00:00.000                             : en:1. Main Titles
00:01:50.109                             : en:2. Follow Your Heart Intro
00:04:15.880                             : en:3. Once Upon a Time
00:05:40.590                             : en:4. Thumbelina
00:12:54.940                             : en:5. A Fairy Prince
00:17:03.731                             : en:6. Going for a Spin
00:22:30.265                             : en:7. Kidnapped
00:26:29.921                             : en:8. On the Road
00:34:35.531                             : en:9. Follow Your Heart
00:37:59.443                             : en:10. With the Toads
00:38:55.916                             : en:11. Mr. Beetle
00:41:04.086                             : en:12. Yer Beautiful Baby
00:43:16.760                             : en:13. Show Us Your Wings
00:49:19.706                             : en:14. Mr. Bettle's Idea
00:52:17.384                             : en:15. The Prince in Ice
00:54:50.120                             : en:16. Soon
00:56:41.106                             : en:17. Under Ground
01:06:23.646                             : en:18. Marry the Mole
01:16:44.725                             : en:19. The Vale of the Fairies
01:21:07.863                             : en:20. End Titles
Світлини




Джерело: &
Особиста оцінка: 0 - не дивився


Срібний реліз (на рейтинг впливає 50% завантаженого)
 Трекер:    Зареєстрований   

Завантажити / скачати мультфільм українською



відео для новачків



 Зареєстрований:   2020-09-15 10:26
 Розмір:   7.25 GB 
 Оцінка мультфільму:   10/10 (Голосів: 4)
   
Інші релізи
   Дюймовочка / Thumbelina (1994) AVC Ukr/Eng | Sub Eng staf777  2 / 0   2.2 GB   2018-09-19 15:10 
   Дюймовочка / Thumbelina (1994) Remux 1080p Ukr/Eng | Sub Eng staf777  2 / 0   20.04 GB   2017-01-08 22:11 
   Дюймовочка / Thumbelina (1994) Ukr/Eng | sub Eng yuranako  9 / 0   1.45 GB   2013-07-15 19:32 
   Дюймовочка / Thumbelina (1994) 1080p Ukr/Eng | Sub Eng igor911  9 / 0   4.35 GB   2013-01-30 12:36 
kukurudzasergiy 
Новенький


З нами з: 28.05.20
Востаннє: 24.02.21
Повідомлень: 12

2020-11-10 23:56  
дякую за 265 дайте швидкості скачати
Ваш часовий пояс: GMT + 2 Години

Нова тема   Відповісти