Вольт / Bolt (2008) 1080p H.265 Ukr/Eng | Sub Ukr/Eng

Нові коментарі

Нова тема   Відповісти
Автор Повідомлення
Anonymous 







2020-09-14 22:30  
Вольт / Bolt (2008) 1080p H.265 Ukr/Eng | Sub Ukr/Eng

Вольт / Bolt (2008) 1080p H.265 Ukr/Eng | Sub Ukr/Eng


Жанр: мультфільм, пригодницький, комедія, сімейний
Країна: США
Кінокомпанія: Walt Disney Animation Studios, Walt Disney Pictures
Режисер: Байрон Говард / Byron Howard і Кріс Вільямс / Chris WilliamsКомпозитор: Джон Павел / John Powell
Актори: Джон Траволта / John Travolta, Майлі Сайрус / Miley Cyrus, Сьюзі Есмен / Susie Essman, Марк Волтон / Mark Walton, Малкольм МакДавел / Malcolm McDowell, Джеймс Ліптон / James Lipton, Ґреґ Ґерман / Greg Germann, Дітріх Бадер / Diedrich Bader, Хлоя Ґрейс Морец / Chloë Grace Moretz та інші.

Сюжет:
Головний герой цього комп’ютерного мультфільму - німецька вівчарка на ім'я Вольт. Цілими днями він виплутується з різних халеп, рятує людей і займається іншими справами, як і годиться супергерою. Насправді Вольт - кіноактор, і навколо все несправжнє, але він сам про це не здогадується, аж поки випадково не потрапляє за межі кіностудії, де йому доводиться розплутувати вже реальні проблеми. У цьому йому допомагають випадкові знайомі - кицька Маркіза і хом'як Ріно.

Тривалість: 01:36:21
Якість:

Відео:
кодек: H.265 (HEVC)
розмір кадру: 1920 x 1080
бітрейт: 2 114 кб/с
бітова глибина: 10 біт

Увага! Перед завантаженням переконайтесь, що ваш пристрій відтворення (та/або ПЗ) підтримує H.265 (HEVC)

Аудіо # 1:
мова: українська
переклад: професійний дубльований | Студія LeDoyen
кодек: AC-3 5.1
бітрейт: 640 кб/с

Аудіо # 2:
мова: англійська
переклад: оригінал
кодек: 5.1
бітрейт: 1510 кб/с

Аудіо # 3:
мова: англійська
переклад: оригінал | коментарі
кодек: AC-3 2.0
бітрейт: 192 кб/с

Субтитри # 1-2: (Forced, Full)
мова: українська
тип: програмні (м'які)
формат: *.srt

Субтитри # 3-4: (Full, SDH)
мова: англійська
тип: програмні (м'які)
формат: *.srt


Info
Код:
General
Unique ID                                : 228321843952137960467843654905894683412 (0xABC53008076E467C1ECF053C9F4A4314)
Complete name                            : Bolt (2008) 1080p H.265 [UKR_ENG] [Hurtom].
Format                                   :
Format version                           : Version 4
File size                                : 3.00 GiB
Duration                                 : 1 h 36 min
Overall bit rate                         : 4 459 kb/s
Movie name                               : Вольт / Bolt (2008)
Encoded date                             : UTC 2020-09-20 10:16:32
Writing application                      : v20.0.0 ('I Am The Sun') 64-bit
Writing library                          : libebml v1.3.5 + v1.4.8
Cover                                    : Yes
Attachments                              : Cover.jpg

Video
ID                                       : 1
Format                                   : HEVC
Format/Info                              : High Efficiency Video Coding
Format profile                           : Main [email protected]@Main
Codec ID                                 : V_MPEGH/ISO/HEVC
Duration                                 : 1 h 36 min
Bit rate                                 : 2 114 kb/s
Width                                    : 1 920 pixels
Height                                   : 1 080 pixels
Display aspect ratio                     : 16:9
Frame rate mode                          : Constant
Frame rate                               : 23.976 (24000/1001) FPS
Color space                              : YUV
Chroma subsampling                       : 4:2:0
Bit depth                                : 10 bits
Bits/(Pixel*Frame)                       : 0.043
Stream size                              : 1.42 GiB (47%)
Title                                    : Вольт / Bolt (2008)
Writing library                          : x265 3.2.1+1-b5c86a64bbbe:[Windows][GCC 9.2.0][64 bit] 10bit
Encoding settings                        : cpuid=1111039 / frame-threads=4 / numa-pools=16 / wpp / no-pmode / no-pme / no-psnr / no-ssim / log-level=2 / input-csp=1 / input-res=1920x1080 / interlace=0 / total-frames=0 / level-idc=0 / high-tier=1 / uhd-bd=0 / ref=5 / no-allow-non-conformance / no-repeat-headers / annexb / no-aud / no-hrd / info / hash=0 / no-temporal-layers / open-gop / min-keyint=24 / keyint=240 / gop-lookahead=0 / bframes=10 / b-adapt=2 / b-pyramid / bframe-bias=0 / rc-lookahead=40 / lookahead-slices=0 / scenecut=40 / radl=0 / no-splice / no-intra-refresh / ctu=64 / min-cu-size=8 / rect / amp / max-tu-size=32 / tu-inter-depth=3 / tu-intra-depth=3 / limit-tu=0 / rdoq-level=2 / dynamic-rd=0.00 / no-ssim-rd / signhide / no-tskip / nr-intra=0 / nr-inter=0 / no-constrained-intra / strong-intra-smoothing / max-merge=5 / limit-refs=0 / no-limit-modes / me=3 / subme=4 / merange=57 / temporal-mvp / no-hme / weightp / weightb / no-analyze-src-pics / deblock=1:1 / sao / no-sao-non-deblock / rd=6 / selective-sao=4 / no-early-skip / rskip / no-fast-intra / no-tskip-fast / no-cu-lossless / b-intra / no-splitrd-skip / rdpenalty=0 / psy-rd=0.40 / psy-rdoq=1.00 / no-rd-refine / no-lossless / cbqpoffs=0 / crqpoffs=0 / rc=crf / crf=19.0 / qcomp=0.60 / qpstep=4 / stats-write=0 / stats-read=0 / ipratio=1.40 / pbratio=1.30 / aq-mode=2 / aq-strength=0.40 / cutree / zone-count=0 / no-strict-cbr / qg-size=32 / no-rc-grain / qpmax=69 / qpmin=0 / no-const-vbv / sar=1 / overscan=0 / videoformat=5 / range=0 / colorprim=1 / transfer=1 / colormatrix=1 / chromaloc=0 / display-window=0 / cll=0,0 / min-luma=0 / max-luma=1023 / log2-max-poc-lsb=8 / vui-timing-info / vui-hrd-info / slices=1 / no-opt-qp-pps / no-opt-ref-list-length-pps / no-multi-pass-opt-rps / scenecut-bias=0.05 / no-opt-cu-delta-qp / no-aq-motion / no-hdr / no-hdr-opt / no-dhdr10-opt / no-idr-recovery-sei / analysis-reuse-level=5 / scale-factor=0 / refine-intra=0 / refine-inter=0 / refine-mv=1 / refine-ctu-distortion=0 / no-limit-sao / ctu-info=0 / no-lowpass-dct / refine-analysis-type=0 / copy-pic=1 / max-ausize-factor=1.0 / no-dynamic-refine / no-single-sei / no-hevc-aq / no-svt / no-field / qp-adaptation-range=1.00
Language                                 : English
Default                                  : Yes
Forced                                   : No
Color range                              : Limited
Color primaries                          : BT.709
Transfer characteristics                 : BT.709
Matrix coefficients                      : BT.709

Audio #1
ID                                       : 2
Format                                   : AC-3
Format/Info                              : Audio Coding 3
Commercial name                          : Dolby Digital
Codec ID                                 : A_AC3
Duration                                 : 1 h 36 min
Bit rate mode                            : Constant
Bit rate                                 : 640 kb/s
Channel(s)                               : 6 channels
Channel layout                           : L R C LFE Ls Rs
Sampling rate                            : 48.0 kHz
Frame rate                               : 31.250 FPS (1536 SPF)
Compression mode                         : Lossy
Stream size                              : 441 MiB (14%)
Title                                    : / 5.1 Ch / 640 kbps / DUB / Blu-Ray / LeDoyen Studio
Language                                 : Ukrainian
Service kind                             : Complete Main
Default                                  : Yes
Forced                                   : Yes

Audio #2
ID                                       : 3
Format                                   : ES
Format/Info                              : Digital Theater Systems
Commercial name                          : -ES Matrix
Codec ID                                 : A_DTS
Duration                                 : 1 h 36 min
Bit rate mode                            : Constant
Bit rate                                 : 1 509 kb/s
Channel(s)                               : 6 channels
Channel(s)_Original                      : 7 channels
ChannelLayout_Original                   : C L R Ls Rs Cs LFE
Sampling rate                            : 48.0 kHz
Frame rate                               : 93.750 FPS (512 SPF)
Bit depth                                : 24 bits
Compression mode                         : Lossy
Stream size                              : 1.02 GiB (34%)
Title                                    : -ES / 5.1 Ch / 1509 kbps / Original
Language                                 : English
Default                                  : No
Forced                                   : No

Audio #3
ID                                       : 4
Format                                   : AC-3
Format/Info                              : Audio Coding 3
Commercial name                          : Dolby Digital
Codec ID                                 : A_AC3
Duration                                 : 1 h 36 min
Bit rate mode                            : Constant
Bit rate                                 : 192 kb/s
Channel(s)                               : 2 channels
Channel layout                           : L R
Sampling rate                            : 48.0 kHz
Frame rate                               : 31.250 FPS (1536 SPF)
Compression mode                         : Lossy
Stream size                              : 132 MiB (4%)
Title                                    : / 2.0 Ch / 192 kbps / Original / Commentary
Language                                 : English
Service kind                             : Complete Main
Default                                  : No
Forced                                   : No

Text #1
ID                                       : 5
Format                                   : UTF-8
Codec ID                                 : S_TEXT/UTF8
Codec ID/Info                            : UTF-8 Plain Text
Duration                                 : 1 h 16 min
Bit rate                                 : 0 b/s
Count of elements                        : 12
Stream size                              : 449 Bytes (0%)
Title                                    : Forced
Language                                 : Ukrainian
Default                                  : Yes
Forced                                   : Yes

Text #2
ID                                       : 6
Format                                   : UTF-8
Codec ID                                 : S_TEXT/UTF8
Codec ID/Info                            : UTF-8 Plain Text
Duration                                 : 1 h 31 min
Bit rate                                 : 89 b/s
Count of elements                        : 1125
Stream size                              : 59.9 KiB (0%)
Title                                    : Full
Language                                 : Ukrainian
Default                                  : No
Forced                                   : No

Text #3
ID                                       : 7
Format                                   : UTF-8
Codec ID                                 : S_TEXT/UTF8
Codec ID/Info                            : UTF-8 Plain Text
Duration                                 : 1 h 31 min
Bit rate                                 : 59 b/s
Count of elements                        : 1110
Stream size                              : 39.6 KiB (0%)
Title                                    : Full
Language                                 : English
Default                                  : No
Forced                                   : No

Text #4
ID                                       : 8
Format                                   : UTF-8
Codec ID                                 : S_TEXT/UTF8
Codec ID/Info                            : UTF-8 Plain Text
Duration                                 : 1 h 31 min
Bit rate                                 : 65 b/s
Count of elements                        : 1440
Stream size                              : 44.1 KiB (0%)
Title                                    : SDH
Language                                 : English
Default                                  : No
Forced                                   : No

Menu
00:00:00.000                             : en:The Beginning
00:02:31.651                             : en:5 Years Later
00:11:00.659                             : en:Boom Mic
00:13:47.201                             : en:Protecting Penny
00:19:19.950                             : en:Cliffhanger
00:24:18.873                             : en:The Package Has Arrived
00:27:14.382                             : en:"I Know This Dog"
00:29:48.703                             : en:Meet Mittens
00:35:25.831                             : en:Road Trip
00:42:09.568                             : en:Rhino!
00:51:41.973                             : en:The Big Breakout
01:01:58.339                             : en:How to Be a Dog
01:08:16.008                             : en:"One Waffle Away?"
01:13:02.711                             : en:Writing Partners
01:18:53.061                             : en:Fire!
01:29:36.829                             : en:End Credits
Світлини




Джерело: &
Особиста оцінка: 10 - без зайвих вагань рекомендую всім!


 Трекер:    Зареєстрований   

Завантажити / скачати мультфільм українською



відео для новачків



 Зареєстрований:   2020-09-20 12:23
 Розмір:   3 GB 
 Оцінка мультфільму:   7.8/10 (Голосів: 8)
   
Інші релізи
   Вольт / Bolt (2008) AVC Ukr/Eng | Sub Ukr/Eng/Fre Maters  7 / 0   2.22 GB   2020-04-08 20:09 
   Вольт / Bolt (2008) 1080p 3D [Half OverUnder] Ukr/Eng | Sub Ukr/Eng igor911  5 / 0   6.47 GB   2015-04-01 16:26 
   Вольт / Bolt (2008) 720p-mini [60fps] Drool  4 / 0   3.66 GB   2014-08-11 15:43 
   Вольт / Bolt (2008) [640x360] apvAltisimo  0 / 0   832 MB   2014-03-15 03:37 
   Вольт / Bolt (2008) Ukr/Eng | Sub Ukr/Eng karvai0  7 / 2   1.7 GB   2013-01-09 22:40 
   Вольт / Bolt (2008) 720p Ukr/Eng | Sub Ukr/Eng Hurtomivets  14 / 0   3.9 GB   2012-01-10 15:36 
   Вольт / Bolt (2008) 1080p-mini Ukr/Eng | Sub Multilanguages DiGen  11 / 0   4.34 GB   2010-04-09 04:20 
   Вольт / Bolt (2008) DVD-5 УКР/ENG Romczyk  0 / 0   4.28 GB   2009-04-04 14:29 
Стрiлок 
Свій


З нами з: 25.03.15
Востаннє: 02.02.21
Повідомлень: 111

2020-09-15 00:59  
Anonymous написано:
Якість: (РОСІЙСЬКИЙ ВІДЕОРЯД)
Без русифікованого кіно на Толоці ніяк?
Anonymous 







2020-09-15 08:49  
Стрiлок написано:
Без русифікованого кіно на Толоці ніяк?

Кожного разу будете писати?
Там декілька кадрів.

sergiyko.5 
Забанено
Забанено


З нами з: 25.02.16
Востаннє: 29.10.20
Повідомлень: 3648

2020-09-15 10:24  
Якщо немає іншого джерела для релізу, то звичайно нехай буде, але такий відомий мульт і немає іншого відеоряду крім ворожого, мало віриться.

Замініть відео, будь ласка.

Anonymous 







2020-09-15 10:26  
sergiyko.5
Дайте посилання на відеопотік.

sergiyko.5 
Забанено
Забанено


З нами з: 25.02.16
Востаннє: 29.10.20
Повідомлень: 3648

2020-09-15 10:28  
Добре, пошукаю. Не знайду, зроблю ріп з блюрею.
Anonymous 







2020-09-15 10:53  
sergiyko.5
Ріп в х265?

sergiyko.5 
Забанено
Забанено


З нами з: 25.02.16
Востаннє: 29.10.20
Повідомлень: 3648

2020-09-15 11:34  
Ну звичайно.
Anonymous 







2020-09-15 21:32  
sergiyko.5
Що ж, тоді очікую.

sergiyko.5 
Забанено
Забанено


З нами з: 25.02.16
Востаннє: 29.10.20
Повідомлень: 3648

2020-09-17 09:14  
Кодувалось 8 ядерним процесором 40 годин
https://fex.net/uk/s/azxnc6r
Кодувалось відеокартою 15 хвилин
https://fex.net/uk/s/a3a6cpo

xslim 
Відео Гуртом - фільмокрай
Відео Гуртом - фільмокрай


З нами з: 04.03.09
Востаннє: 25.02.21
Повідомлень: 1411

2020-09-18 17:59  
gpu більш чіткіше зображення а в cpu вже милить
тож висновок краще gpu за 15 хвилин ніж cpu 40 годин

sergiyko.5 
Забанено
Забанено


З нами з: 25.02.16
Востаннє: 29.10.20
Повідомлень: 3648

2020-09-18 18:07  
На ріпі gpu помітні артефакти. Треба підбирати параметри кодування, робити проби, поки не займався вивченням питання.
Anonymous 







2020-09-20 12:23  
Не русифікований відеоряд.
Ваш часовий пояс: GMT + 2 Години

Нова тема   Відповісти