Білл і Тед / Bill & Ted Face the Music (2020) 1080p Ukr/Eng | Sub Eng

Нові коментарі

Нова тема   Відповісти
Автор Повідомлення
Neo_Men 
Свій


З нами з: 21.11.15
Востаннє: 25.09.20
Повідомлень: 127

2020-09-14 19:31  
Білл і Тед / Bill & Ted Face the Music (2020) 1080p Ukr/Eng | Sub Eng

Білл і Тед / Bill & Ted Face the Music (2020) 1080p Ukr/Eng | Sub Eng


Жанр: комедія
Країна: США, Канада, Італія



Кінокомпанія: TinRes Entertainment, Orion Pictures
Режисер: Дін Парізо
Актори: Кіану Рівз, Алекс Вінтер, Крістен Шаал, Самара Вівінг, Бригіта Ланді-Пейн, Вільям Седлер, Ентоні Керріган, Ерінн Хейс, Джейма Мейс, Хел Лендон мл.

Сюжет:
Білл і Тед почули пророцтво, що їх рок-н-рол врятує всесвіт від загибелі. Однак пройшло вже багато років, але ту саму пісню герої так і не написали. Крім того, їх шлюби розвалюються, а власні діти зляться на татусів. Раптом прибулець прибуває з майбутнього і нагадує, що якщо Білл і Тед не видадуть свій хіт, то всесвіту буде загрожувати неймовірна небезпека. Приятелі відправляються в нову подорож по різним епохам в пошуках натхнення. Компанію їм складуть їх дочки, кілька історичних особистостей і легендарних музикантів.


Тривалість: 01:31:54
Якість: WEB- DL 1080p (Amazon)
Відео:
кодек:
розмір кадру: 1920 x 800
бітрейт: 8112 кб/с

Аудіо # 1:
мова: українська
переклад: професійний дубльований
кодек: 2.0
бітрейт: 192 кб/с

Аудіо # 2:
мова: англійська
переклад: оригінал
кодек: 5.1
бітрейт: 640 кб/с

Субтитри:
мова: англійська
тип: програмні (м'які)
формат: *.srt
Info
General
Unique ID : 208189081840902605927688469827308858477 (0x9C9FC238EE2A3A62A5DEC072108DAC6D)
Complete name : Bill.and.Ted.Face.the.Music.(2020).AMZN..1080p.Ukr.Eng.
Format :
Format version : Version 4
File size : 5.74 GiB
Duration : 1 h 31 min
Overall bit rate : 8 947 kb/s
Encoded date : UTC 2020-09-13 16:09:48
Writing application : v8.3.0 ('Over the Horizon') 64bit
Writing library : libebml v1.3.1 + v1.4.2

Video
ID : 1
Format : AVC
Format/Info : Advanced Video Codec
Format profile : [email protected]
Format settings : CABAC / 4 Ref Frames
Format settings, CABAC : Yes
Format settings, ReFrames : 4 frames
Codec ID : V_MPEG4/ISO/AVC
Duration : 1 h 31 min
Bit rate mode : Constant
Bit rate : 8 112 kb/s
Nominal bit rate : 10 000 kb/s
Width : 1 920 pixels
Height : 800 pixels
Display aspect ratio : 2.40:1
Frame rate mode : Constant
Frame rate : 23.976 (24000/1001) FPS
Color space : YUV
Chroma subsampling : 4:2:0
Bit depth : 8 bits
Scan type : Progressive
Bits/(Pixel*Frame) : 0.220
Stream size : 5.21 GiB (91%)
Default : Yes
Forced : No
Color range : Limited
Color primaries : BT.709
Transfer characteristics : BT.709
Matrix coefficients : BT.709

Audio #1
ID : 2
Format : AC-3
Format/Info : Audio Coding 3
Commercial name : Dolby Digital
Codec ID : A_AC3
Duration : 1 h 31 min
Bit rate mode : Constant
Bit rate : 192 kb/s
Channel(s) : 2 channels
Channel layout : L R
Sampling rate : 48.0 kHz
Frame rate : 31.250 FPS (1536 SPF)
Bit depth : 16 bits
Compression mode : Lossy
Stream size : 126 MiB (2%)
Title : DUB [Line]
Language : Ukrainian
Service kind : Complete Main
Default : Yes
Forced : No

Audio #2
ID : 3
Format : E-AC-3
Format/Info : Enhanced AC-3
Commercial name : Dolby Digital Plus
Codec ID : A_EAC3
Duration : 1 h 31 min
Bit rate mode : Constant
Bit rate : 640 kb/s
Channel(s) : 6 channels
Channel layout : L R C LFE Ls Rs
Sampling rate : 48.0 kHz
Frame rate : 31.250 FPS (1536 SPF)
Compression mode : Lossy
Stream size : 421 MiB (7%)
Language : English
Service kind : Complete Main
Default : No
Forced : No

Text #1
ID : 4
Format : UTF-8
Codec ID : S_TEXT/UTF8
Codec ID/Info : UTF-8 Plain Text
Duration : 1 h 31 min
Bit rate : 63 b/s
Count of elements : 1583
Stream size : 42.1 KiB (0%)
Title : Full
Language : English
Default : No
Forced : No

Text #2
ID : 5
Format : UTF-8
Codec ID : S_TEXT/UTF8
Codec ID/Info : UTF-8 Plain Text
Duration : 1 h 31 min
Bit rate : 68 b/s
Count of elements : 1733
Stream size : 45.4 KiB (0%)
Title : SDH
Language : English
Default : No
Forced : No

Menu
00:00:00.000 : :Studio Logo
00:00:33.000 : :Prologue
00:01:56.000 : :Wedding
00:06:32.000 : :Couples' Therapy
00:09:53.000 : :Respecting the situation
00:20:54.000 : :Plagiarizer
00:25:49.000 : :Putting plans in place
00:30:05.000 : :Assembling a band
00:41:57.000 : :More members
00:47:09.000 : :Hell
00:51:42.000 : :Face the music
00:59:05.000 : :The last member
01:10:00.000 : :The prophesy
01:24:15.000 : :End Credits
01:29:38.000 : :One last thing to do
Скріншоти




Дякую eneyida.tv за укр. дорiжку

Джерело: &
Особиста оцінка: 0 - не дивився


 Трекер:    Зареєстрований   

Завантажити / скачати фільм українською



відео для новачків



 Зареєстрований:   2020-09-14 19:31
 Розмір:   5.74 GB 
 Оцінка фільму:   6.8/10 (Голосів: 16)
   
Інші релізи
Cerguk 
Свій


З нами з: 30.09.09
Востаннє: 25.09.20
Повідомлень: 106

2020-09-15 12:32  
Рідкісне гівно, звідки такий рейтинг незрозуміло, я би максимум 4 дав.
Wensun 
Поважний учасник


З нами з: 20.01.09
Востаннє: 23.09.20
Повідомлень: 180

2020-09-15 15:19  
треш.. але додивився до кінця, Рівзу певно дадуть "Золоту Малину", не розумію як він на таке погодився. 4/10
Ваш часовий пояс: GMT + 2 Години

Нова тема   Відповісти