Король злодіїв / King of Thieves (2018) AVC Ukr/Eng | sub Eng

Нові коментарі

Нова тема   Відповісти
Автор Повідомлення
Arsenfpu 
Відео Гуртом - фільмокрай
Відео Гуртом - фільмокрай


З нами з: 30.04.09
Востаннє: 27.09.20
Повідомлень: 7254

2020-09-14 17:50  
Король злодіїв / King of Thieves (2018) AVC Ukr/Eng | sub Eng

Король злодіїв / King of Thieves (2018) AVC Ukr/Eng | sub Eng


Жанр: кримінальний, драма
Країна: Велика Британія, Бельгія, США



Кінокомпанія: StudioCanal, Working Title Films, MEDIA Programme of the European Union
Режисер: Джеймс Марш
Актори: Майкл Кейн, Чарлі Кокс, Майкл Гембон, Джим Бродбент, Рей Уїнстон, Франческа Анніс, Том Кортні, Пол Уайтхаус, Келлі Ширлі, Бернардо Сантос

Сюжет:
Сюжет фільму «Король злодіїв» заснований на реальних подіях, які відбулися в квітні 2015 року в депозитарії Хаттон Гарден. Історія про одного з найвідоміших злодіїв - 77-річного Брайана Рідера, який збирає команду злочинців, щоб зробити найбільше пограбування банку в історії Великої Британії. Група людей пенсійного та передпенсійного віку, прикинувшись газівниками, винесла їх осередків сховища неймовірно велику суму грошей. Укравши величезну суму грошей, злодії тікають з місця злочину, але, коли поліція починає цікавитися ними, між членами банди з'являється розкол.


Тривалість: 01:47:37
Якість:
Відео:
кодек:
розмір кадру: 1 024 х 432
бітрейт: 2 499 кб/с

Аудіо # 1:
мова: українська
переклад: багатоголосий закадровий
кодек: 2.0
бітрейт: 192 кб/с

Аудіо # 2:
мова: англійська
переклад: оригінал
кодек: 2.0
бітрейт: 192 кб/с

Субтитри:
мова: англійська
тип: програмні (м'які)
формат: *.srt
Скріншоти














Про файл
General
Unique ID : 234519217576122086420675967254812705906 (0xB06EC2244D19710F61B877996AB84472)
Complete name : C:\King of Thieves (2018) [Ukr,Eng] AVC [Hurtom].
Format :
Format version : Version 4 / Version 2
File size : 2.17 GiB
Duration : 1 h 47 min
Overall bit rate : 2 885 kb/s
Movie name : Король злодіїв / King of Thieves (2018)
Encoded date : UTC 2020-09-18 23:06:51
Writing application : v21.0.0 ('Tardigrades Will Inherit The Earth') 32-bit
Writing library : libebml v1.3.5 + v1.4.8
Cover : Yes
Attachments : cover.jpg

Video
ID : 1
Format : AVC
Format/Info : Advanced Video Codec
Format profile : [email protected]
Format settings, CABAC : Yes
Format settings, ReFrames : 4 frames
Codec ID : V_MPEG4/ISO/AVC
Duration : 1 h 47 min
Bit rate : 2 499 kb/s
Width : 1 024 pixels
Height : 432 pixels
Display aspect ratio : 2.40:1
Frame rate mode : Constant
Frame rate : 24.000 FPS
Color space : YUV
Chroma subsampling : 4:2:0
Bit depth : 8 bits
Scan type : Progressive
Bits/(Pixel*Frame) : 0.235
Stream size : 1.88 GiB (87%)
Writing library : core 157 r2935 545de2f
Encoding settings : cabac=1 / ref=3 / deblock=1:-1:-1 / analyse=0x3:0x113 / me=hex / subme=7 / psy=1 / psy_rd=1.00:0.15 / mixed_ref=1 / me_range=16 / chroma_me=1 / trellis=1 / 8x8dct=1 / cqm=0 / deadzone=21,11 / fast_pskip=1 / chroma_qp_offset=-3 / threads=12 / lookahead_threads=2 / sliced_threads=0 / nr=0 / decimate=1 / interlaced=0 / bluray_compat=0 / constrained_intra=0 / bframes=3 / b_pyramid=2 / b_adapt=1 / b_bias=0 / direct=1 / weightb=1 / open_gop=0 / weightp=2 / keyint=240 / keyint_min=24 / scenecut=40 / intra_refresh=0 / rc_lookahead=40 / rc=2pass / mbtree=1 / bitrate=2499 / ratetol=1.0 / qcomp=0.60 / qpmin=0 / qpmax=69 / qpstep=4 / cplxblur=20.0 / qblur=0.5 / ip_ratio=1.40 / aq=1:1.00
Default : Yes
Forced : No

Audio #1
ID : 2
Format : AC-3
Format/Info : Audio Coding 3
Mode extension : CM (complete main)
Format settings, Endianness : Big
Codec ID : A_AC3
Duration : 1 h 47 min
Bit rate mode : Constant
Bit rate : 192 kb/s
Channel(s) : 2 channels
Channel positions : Front: L R
Sampling rate : 48.0 kHz
Frame rate : 31.250 FPS (1536 spf)
Compression mode : Lossy
Stream size : 148 MiB (7%)
Title : ICTV
Language : Ukrainian
Default : Yes
Forced : Yes

Audio #2
ID : 3
Format : AC-3
Format/Info : Audio Coding 3
Mode extension : CM (complete main)
Format settings, Endianness : Big
Codec ID : A_AC3
Duration : 1 h 47 min
Bit rate mode : Constant
Bit rate : 192 kb/s
Channel(s) : 2 channels
Channel positions : Front: L R
Sampling rate : 48.0 kHz
Frame rate : 31.250 FPS (1536 spf)
Compression mode : Lossy
Stream size : 148 MiB (7%)
Language : English
Default : No
Forced : No

Text
ID : 4
Format : UTF-8
Codec ID : S_TEXT/UTF8
Codec ID/Info : UTF-8 Plain Text
Duration : 1 h 46 min
Bit rate : 63 b/s
Count of elements : 1540
Stream size : 49.7 KiB (0%)
Language : English
Default : Yes
Forced : No
Джерело:
Особиста оцінка: не дивився


 Трекер:    Зареєстрований   

Завантажити / скачати фільм українською



відео для новачків



 Зареєстрований:   2020-09-19 02:22
 Розмір:   2.17 GB 
 Оцінка фільму:   9.6/10 (Голосів: 13)
   
Інші релізи
   Король злодіїв / King of Thieves (2018) drop_plz  89 / 1   1.66 GB   2020-09-17 19:36 
ukrnet 
Свій


З нами з: 03.01.14
Востаннє: 26.09.20
Повідомлень: 97

2020-09-20 22:10  
4 к буде?
Ваш часовий пояс: GMT + 2 Години

Нова тема   Відповісти