6 днів / 6 Days (2017) AVC Ukr/Eng

Нові коментарі

Нова тема   Відповісти
Автор Повідомлення
Arsenfpu 
Відео Гуртом - фільмокрай
Відео Гуртом - фільмокрай


З нами з: 30.04.09
Востаннє: 23.09.20
Повідомлень: 7242

2020-09-14 17:28  
6 днів / 6 Days (2017) AVC Ukr/Eng

6 днів / 6 Days (2017) AVC Ukr/Eng


Жанр: екшн, драма, історичний
Країна: Нова Зеладія, Велика Британія



Кінокомпанія: Dog with a Bone Productions, General Film Corporation
Режисер: Тоа Фрейзер
Актори: Марк Стронг, Джеймі Белл, Еббі Корніш, Мартін Шоу, Бен Тернер, Іман Елліотт, Аймен Хамдуші, Ендрю Грейнджер, Колін Гарлик

Сюжет:
У 1980 році Лондоном блискавично розлетілася новина про терористичну атаку, спрямовану на іранське посольство. Все почалося з того, що група невідомих увірвалася в будівлю посольства і взяла в полон всіх його співробітників. Влада намагалася домовитися з терористами, проте їхні вимоги були нездійсненними. Керівництво спецназу прийняло рішення взяти штурмом будівлю, незважаючи на те, що могли з'явитися жертви серед цивільного населення. Ситуація загострювалася тим, що будівля посольства було добре укріплена, і це заважало солдатам швидко досягати поставлених цілей.


Тривалість: 01:34:34
Якість:
Відео:
кодек:
розмір кадру: 1 024 х 432
бітрейт: 2 499 кб/с

Аудіо # 1:
мова: українська
переклад: багатоголосий закадровий
кодек: 2.0
бітрейт: 192 кб/с

Аудіо # 2:
мова: англійська
переклад: оригінал
кодек: 2.0
бітрейт: 192 кб/с
Скріншоти














Про файл
General
Unique ID : 37411149552393837142062805693285025065 (0x1C252014D1F60FB2E4605CDF61B84529)
Complete name : C:\6 Days (2017) [Ukr,Eng] AVC [Hurtom].
Format :
Format version : Version 4 / Version 2
File size : 1.91 GiB
Duration : 1 h 34 min
Overall bit rate : 2 885 kb/s
Movie name : 6 днів / 6 Days (2017)
Encoded date : UTC 2020-09-17 19:37:32
Writing application : v21.0.0 ('Tardigrades Will Inherit The Earth') 32-bit
Writing library : libebml v1.3.5 + v1.4.8
Cover : Yes
Attachments : cover.jpg

Video
ID : 1
Format : AVC
Format/Info : Advanced Video Codec
Format profile : [email protected]
Format settings, CABAC : Yes
Format settings, ReFrames : 4 frames
Codec ID : V_MPEG4/ISO/AVC
Duration : 1 h 34 min
Bit rate : 2 499 kb/s
Width : 1 024 pixels
Height : 432 pixels
Display aspect ratio : 2.40:1
Frame rate mode : Constant
Frame rate : 23.976 (24000/1001) FPS
Color space : YUV
Chroma subsampling : 4:2:0
Bit depth : 8 bits
Scan type : Progressive
Bits/(Pixel*Frame) : 0.236
Stream size : 1.65 GiB (87%)
Writing library : core 157 r2935 545de2f
Encoding settings : cabac=1 / ref=3 / deblock=1:-1:-1 / analyse=0x3:0x113 / me=hex / subme=7 / psy=1 / psy_rd=1.00:0.15 / mixed_ref=1 / me_range=16 / chroma_me=1 / trellis=1 / 8x8dct=1 / cqm=0 / deadzone=21,11 / fast_pskip=1 / chroma_qp_offset=-3 / threads=12 / lookahead_threads=2 / sliced_threads=0 / nr=0 / decimate=1 / interlaced=0 / bluray_compat=0 / constrained_intra=0 / bframes=3 / b_pyramid=2 / b_adapt=1 / b_bias=0 / direct=1 / weightb=1 / open_gop=0 / weightp=2 / keyint=240 / keyint_min=23 / scenecut=40 / intra_refresh=0 / rc_lookahead=40 / rc=2pass / mbtree=1 / bitrate=2499 / ratetol=1.0 / qcomp=0.60 / qpmin=0 / qpmax=69 / qpstep=4 / cplxblur=20.0 / qblur=0.5 / ip_ratio=1.40 / aq=1:1.00
Default : Yes
Forced : No

Audio #1
ID : 2
Format : AC-3
Format/Info : Audio Coding 3
Mode extension : CM (complete main)
Format settings, Endianness : Big
Codec ID : A_AC3
Duration : 1 h 34 min
Bit rate mode : Constant
Bit rate : 192 kb/s
Channel(s) : 2 channels
Channel positions : Front: L R
Sampling rate : 48.0 kHz
Frame rate : 31.250 FPS (1536 spf)
Compression mode : Lossy
Stream size : 130 MiB (7%)
Title : ICTV
Language : Ukrainian
Default : Yes
Forced : Yes

Audio #2
ID : 3
Format : AC-3
Format/Info : Audio Coding 3
Mode extension : CM (complete main)
Format settings, Endianness : Big
Codec ID : A_AC3
Duration : 1 h 34 min
Bit rate mode : Constant
Bit rate : 192 kb/s
Channel(s) : 2 channels
Channel positions : Front: L R
Sampling rate : 48.0 kHz
Frame rate : 31.250 FPS (1536 spf)
Compression mode : Lossy
Stream size : 130 MiB (7%)
Language : English
Default : No
Forced : No
Джерело:
Особиста оцінка: не дивився


 Трекер:    Зареєстрований   

Завантажити / скачати фільм українською



відео для новачків



 Зареєстрований:   2020-09-17 23:14
 Розмір:   1.91 GB 
 Оцінка фільму:   10/10 (Голосів: 4)
   
Інші релізи
   6 днів / 6 Days (2017) Remux 1080p Ukr/Eng | Sub Eng kryk-v.ya.  13 / 0   18.84 GB   2020-09-17 13:25 
   6 днів / 6 Days (2017) 720p Ukr/Eng | Sub Eng staf777  13 / 0   3.65 GB   2020-09-16 12:43 
   6 днів / 6 Days (2017) AVC Ukr/Eng | Sub Eng staf777  20 / 0   1.55 GB   2020-09-16 09:47 
   6 днів / 6 Days (2017) 1080p Ukr/Eng | Sub Eng staf777  22 / 0   6.8 GB   2020-09-16 08:44 
   6 днів / 6 Days (2017) drop_plz  28 / 0   1.29 GB   2020-09-16 06:07 
bot 
робот


З нами з: 30.09.07
Востаннє: 26.05.05
Повідомлень: 25576

2020-09-17 23:13  
Тему перенесено з Анонси релізів до форуму Фільми


Arsenfpu

Ваш часовий пояс: GMT + 2 Години

Нова тема   Відповісти