Білл і Тед / Bill & Ted Face the Music (2020) 720p Ukr/Eng | Sub Eng

Нові коментарі

Нова тема   Відповісти
Автор Повідомлення
Anonymous 







2020-09-14 10:55  
Білл і Тед / Bill & Ted Face the Music (2020) 720p Ukr/Eng | Sub Eng

Білл і Тед / Bill & Ted Face the Music (2020) 720p Ukr/Eng | Sub Eng


Жанр: комедія
Країна: США, Канада, Італія



Кінокомпанія: TinRes Entertainment, Orion Pictures
Режисер: Дін Парізо
Актори: Кіану Рівз, Алекс Вінтер, Крістен Шаал, Самара Вівінг, Бригіта Ланді-Пейн, Вільям Седлер, Ентоні Керріган, Ерінн Хейс, Джейма Мейс, Хел Лендон мл.

Сюжет:
Білл і Тед почули пророцтво, що їх рок-н-рол врятує всесвіт від загибелі. Однак пройшло вже багато років, але ту саму пісню герої так і не написали. Крім того, їх шлюби розвалюються, а власні діти зляться на татусів. Раптом прибулець прибуває з майбутнього і нагадує, що якщо Білл і Тед не видадуть свій хіт, то всесвіту буде загрожувати неймовірна небезпека. Приятелі відправляються в нову подорож по різним епохам в пошуках натхнення. Компанію їм складуть їх дочки, кілька історичних особистостей і легендарних музикантів.


Тривалість: 01:31:56
Якість: 720p
Відео:
кодек:
розмір кадру: 1248 x 520
бітрейт: 3264 кб/с

Аудіо # 1:
мова: українська
переклад: професійний дубльований
кодек: 2.0
бітрейт: 192 кб/с

Аудіо # 2:
мова: англійська
переклад: оригінал
кодек: E- 5.1
бітрейт: 640 кб/с

Субтитри # 1-2: (Full, SDH)
мова: англійська
тип: програмні (м'які)
формат: *.srt
Info
General
Complete name : Bill & Ted Face the Music (2020) 720p [ukr, eng] [Hurtom].
Format :
Format version : Version 4
File size : 2.63 GiB
Duration : 1 h 31 min
Overall bit rate : 4 098 kb/s
Encoded date : UTC 2020-09-14 07:37:30
Writing application : v30.1.0 ('Forever And More') 64-bit
Writing library : libebml v1.3.6 + v1.4.9
Cover : Yes
Attachments : cover.jpg

Video
ID : 1
Format : AVC
Format/Info : Advanced Video Codec
Format profile : [email protected]
Format settings : CABAC / 4 Ref Frames
Format settings, CABAC : Yes
Format settings, RefFrames : 4 frames
Codec ID : V_MPEG4/ISO/AVC
Duration : 1 h 31 min
Bit rate mode : Constant
Bit rate : 3 264 kb/s
Nominal bit rate : 4 000 kb/s
Width : 1 248 pixels
Height : 520 pixels
Display aspect ratio : 2.40:1
Frame rate mode : Constant
Frame rate : 23.976 (24000/1001) FPS
Color space : YUV
Chroma subsampling : 4:2:0
Bit depth : 8 bits
Scan type : Progressive
Bits/(Pixel*Frame) : 0.210
Stream size : 2.10 GiB (80%)
Default : Yes
Forced : No
Color range : Limited
Color primaries : BT.709
Transfer characteristics : BT.709
Matrix coefficients : BT.709

Audio #1
ID : 2
Format : AC-3
Format/Info : Audio Coding 3
Commercial name : Dolby Digital
Codec ID : A_AC3
Duration : 1 h 31 min
Bit rate mode : Constant
Bit rate : 192 kb/s
Channel(s) : 2 channels
Channel layout : L R
Sampling rate : 48.0 kHz
Frame rate : 31.250 FPS (1536 SPF)
Bit depth : 16 bits
Compression mode : Lossy
Delay relative to video : 1 s 0 ms
Stream size : 126 MiB (5%)
Language : Ukrainian
Service kind : Complete Main
Default : Yes
Forced : No

Audio #2
ID : 3
Format : E-AC-3
Format/Info : Enhanced AC-3
Commercial name : Dolby Digital Plus
Codec ID : A_EAC3
Duration : 1 h 31 min
Bit rate mode : Constant
Bit rate : 640 kb/s
Channel(s) : 6 channels
Channel layout : L R C LFE Ls Rs
Sampling rate : 48.0 kHz
Frame rate : 31.250 FPS (1536 SPF)
Compression mode : Lossy
Stream size : 421 MiB (16%)
Language : English
Service kind : Complete Main
Default : No
Forced : No

Text #1
ID : 4
Format : UTF-8
Codec ID : S_TEXT/UTF8
Codec ID/Info : UTF-8 Plain Text
Duration : 1 h 31 min
Bit rate : 63 b/s
Count of elements : 1583
Stream size : 42.1 KiB (0%)
Language : English
Default : No
Forced : No

Text #2
ID : 5
Format : UTF-8
Codec ID : S_TEXT/UTF8
Codec ID/Info : UTF-8 Plain Text
Duration : 1 h 31 min
Bit rate : 68 b/s
Count of elements : 1733
Stream size : 45.4 KiB (0%)
Title : SDH
Language : English
Default : No
Forced : No

Menu
00:00:00.000 : en:Studio Logo
00:00:33.000 : en:Prologue
00:01:56.000 : en:Wedding
00:06:32.000 : en:Couples' Therapy
00:09:53.000 : en:Respecting the situation
00:20:54.000 : en:Plagiarizer
00:25:49.000 : en:Putting plans in place
00:30:05.000 : en:Assembling a band
00:41:57.000 : en:More members
00:47:09.000 : en:Hell
00:51:42.000 : en:Face the music
00:59:05.000 : en:The last member
01:10:00.000 : en:The prophesy
01:24:15.000 : en:End Credits
01:29:38.000 : en:One last thing to do
Скріншоти


Джерело: & eneyida.tv
Особиста оцінка: 0 - не дивився


 Трекер:    Зареєстрований   

Завантажити / скачати фільм українською



відео для новачків



 Зареєстрований:   2020-09-14 10:55
 Розмір:   2.63 GB 
 Оцінка фільму:   8/10 (Голосів: 9)
   
Інші релізи
ljuter 
Новенький


З нами з: 27.11.13
Востаннє: 25.09.20
Повідомлень: 5

2020-09-17 02:02  
Лютий треш. Моя оцінка 3
Ваш часовий пояс: GMT + 2 Години

Нова тема   Відповісти