Нічия земля / No Man's Land (2001) 1080p 2xUkr/Bos

Нові коментарі

Нова тема   Відповісти
Автор Повідомлення
Anonymous 







2020-09-13 21:47  
Нічия земля / No Man's Land (2001) 1080p 2xUkr/Bos


Оригінальний постер:





Жанр: драма, військовий
Країна: Боснія і Герцеговина, Франція, Словенія, Італія, Великобританія, Бельгія



Кінокомпанія: Man's Films
Режисер: Даніс Тановіч / Danis Tanovic
Актори: Бранко Джуріч / Branko Đurić, Рене Бітораяч / Rene Bitorajac, Філіп Соваґовіч / Filip Sovagovic

Сюжет:
1993 рік. У Європі йде війна. Мешканці дружньої і колись миролюбної Югославії безжально вбивають один одного. Взвод боснійських солдатів заблукав в нічному тумані і зранку, з жахом для себе виявив, що опинився просто перед сербською передовою, під вогнем противника. Після швидкого, але жорстокого бою, в траншеї на нейтральній смузі виявилося трійко поранених - серб і два боснійці. Один з боснійців лежить на міні: якщо спробувати зняти його з цієї пекельної машини - вона спрацює. Що робити заклятим ворогам, що опинилися в такій абсурдній та моторошній ситуації?

Тривалість: 01:37:47
Якість: 1080p

Відео:
Кодек:
Розмір кадру: 1920 x 820
Бітрейт: 14.8 Мбіит/с

Аудіо #1:
Мова: українська
Переклад: багатоголосий закадровий [студія Омікрон]
Кодек: 5.1
Бітрейт: 640 Кбіт/с

Аудіо #2:
Мова: українська
Переклад: багатоголосий закадровий [студія Омікрон]
Кодек: PCM 2.0
Бітрейт: 1536 Кбіт/с

Аудіо #3:
Мова: українська
Переклад: багатоголосий закадровий [1+1]
Кодек: 2.0
Бітрейт: 192 Кбіт/с

Аудіо #4:
Мова: англійська
Переклад: Оригінал
Кодек: 5.1
Бітрейт: 640 Кбіт/с

Аудіо #5:
Мова: англійська
Переклад: Оригінал
Кодек: 5.1
Бітрейт: 1536 Кбіт/с


Перекладено та озвучено студією "Омікрон" на замовлення HURTOM.COM


Info


General
Unique ID : 82780269218121894107500936638120785529 (0x3E46E661C1EE9C134AB14A3A34B6F679)
Format :
Format version : Version 4
File size : 13.2 GiB
Duration : 1 h 37 min
Overall bit rate : 19.4 Mb/s
Movie name : Нічия земля \ No Mans Land (2001) 1080p [2xUkrEng] [Hurtom]
Encoded date : UTC 2020-09-13 17:51:40
Writing application : v50.0.0 ('Awakenings') 64-bit
Writing library : libebml v1.4.0 + v1.6.2
Attachments : poster_ukr.jpg / poster_eng.jpg

Video
ID : 1
Format : AVC
Format/Info : Advanced Video Codec
Format profile : [email protected]
Format settings : CABAC / 5 Ref Frames
Format settings, CABAC : Yes
Format settings, Reference fra : 5 frames
Codec ID : V_MPEG4/ISO/AVC
Duration : 1 h 37 min
Bit rate : 14.8 Mb/s
Width : 1 920 pixels
Height : 820 pixels
Display aspect ratio : 2.35:1
Frame rate mode : Constant
Frame rate : 23.976 (24000/1001) FPS
Color space : YUV
Chroma subsampling : 4:2:0
Bit depth : 8 bits
Scan type : Progressive
Bits/(Pixel*Frame) : 0.393
Stream size : 10.1 GiB (77%)
Title : No Mans Land (2001) 1080p
Writing library : core 157 r2935 545de2f
Encoding settings : cabac=1 / ref=5 / deblock=1:-3:-3 / analyse=0x3:0x133 / me=umh / subme=10 / psy=1 / psy_rd=1.00:0.00 / mixed_ref=1 / me_range=24 / chroma_me=1 / trellis=2 / 8x8dct=1 / cqm=0 / deadzone=21,11 / fast_pskip=0 / chroma_qp_offset=-2 / threads=18 / lookahead_threads=3 / sliced_threads=0 / nr=0 / decimate=1 / interlaced=0 / bluray_compat=0 / constrained_intra=0 / bframes=8 / b_pyramid=2 / b_adapt=2 / b_bias=0 / direct=3 / weightb=1 / open_gop=0 / weightp=2 / keyint=240 / keyint_min=24 / scenecut=40 / intra_refresh=0 / rc_lookahead=60 / rc=crf / mbtree=1 / crf=16.5 / qcomp=0.60 / qpmin=0 / qpmax=69 / qpstep=4 / vbv_maxrate=62500 / vbv_bufsize=78125 / crf_max=0.0 / nal_hrd=none / filler=0 / ip_ratio=1.40 / aq=1:1.00
Language : English
Default : Yes
Forced : No
Color range : Limited
Color primaries : BT.709
Transfer characteristics : BT.709
Matrix coefficients : BT.709

Audio #1
ID : 2
Format : AC-3
Format/Info : Audio Coding 3
Commercial name : Dolby Digital
Codec ID : A_AC3
Duration : 1 h 37 min
Bit rate mode : Constant
Bit rate : 640 kb/s
Channel(s) : 6 channels
Channel layout : L R C LFE Ls Rs
Sampling rate : 48.0 kHz
Frame rate : 31.250 FPS (1536 SPF)
Compression mode : Lossy
Stream size : 448 MiB (3%)
Title : MVO [Омікрон] 5.1 @ 640 Кбіт/с
Language : Ukrainian
Service kind : Complete Main
Default : Yes
Forced : No

Audio #2
ID : 3
Format : PCM
Format settings : Little / Signed
Codec ID : A_PCM/INT/LIT
Duration : 1 h 37 min
Bit rate mode : Constant
Bit rate : 1 536 kb/s
Channel(s) : 2 channels
Sampling rate : 48.0 kHz
Frame rate : 200.000 FPS (240 SPF)
Bit depth : 16 bits
Stream size : 1.05 GiB (8%)
Title : MVO [Омікрон] PCM 2.0 @ 1536 Кбіт/с
Language : Ukrainian
Default : No
Forced : No

Audio #3
ID : 4
Format : AC-3
Format/Info : Audio Coding 3
Commercial name : Dolby Digital
Codec ID : A_AC3
Duration : 1 h 37 min
Bit rate mode : Constant
Bit rate : 192 kb/s
Channel(s) : 2 channels
Channel layout : L R
Sampling rate : 48.0 kHz
Frame rate : 31.250 FPS (1536 SPF)
Compression mode : Lossy
Stream size : 134 MiB (1%)
Title : MVO [1+1] 2.0 @ 192 Кбіт/с
Language : Ukrainian
Service kind : Complete Main
Default : No
Forced : No

Audio #4
ID : 5
Format : AC-3
Format/Info : Audio Coding 3
Commercial name : Dolby Digital
Codec ID : A_AC3
Duration : 1 h 37 min
Bit rate mode : Constant
Bit rate : 640 kb/s
Channel(s) : 6 channels
Channel layout : L R C LFE Ls Rs
Sampling rate : 48.0 kHz
Frame rate : 31.250 FPS (1536 SPF)
Compression mode : Lossy
Stream size : 448 MiB (3%)
Title : [Оригінал] 5.1 @ 640 Кбіт/с
Language : Bosnian
Service kind : Complete Main
Default : No
Forced : No

Audio #5
ID : 6
Format : PCM
Format settings : Little / Signed
Codec ID : A_PCM/INT/LIT
Duration : 1 h 37 min
Bit rate mode : Constant
Bit rate : 1 536 kb/s
Channel(s) : 2 channels
Sampling rate : 48.0 kHz
Frame rate : 200.000 FPS (240 SPF)
Bit depth : 16 bits
Stream size : 1.05 GiB (8%)
Title : [Оригінал] PCM 2.0 @ 1536 Кбіт/с
Language : Bosnian
Default : No
Forced : No
Скріншоти










Джерело:


Авторський реліз (завантажувати можна без реєстрації)
 Трекер:    Зареєстрований   

Завантажити / скачати фільм українською



відео для новачків



 Зареєстрований:   2020-09-13 21:47
 Розмір:   13.24 GB 
 Оцінка фільму:   9.5/10 (Голосів: 2)
   
Інші релізи
   Нічия земля (Нічийна земля) / No Man's Land (2001) AVC 2xUkr Maters  4 / 0   1.62 GB   2019-10-29 00:15 
   Нічия земля (Нічийна земля) / No Man's Land (2001) 2xUkr Arsenfpu  4 / 0   1.59 GB   2016-11-23 22:17 
   Нічия земля / No Man's Land (2001) Omikron  1 / 0   1.45 GB   2015-04-03 17:51 
   Нічия земля / No Man's Land (2001) 720p Ukr/Bos Omikron  4 / 1   2.42 GB   2015-04-03 17:49 
   Нічия земля / No Man's Land (2001) Remux Ukr/Bos Omikron  2 / 0   21.7 GB   2015-04-03 17:48 
   Нічия земля / No Man's Land (2001) 720p Ukr/Bos Omikron  2 / 0   4.72 GB   2012-11-08 01:45 
Ваш часовий пояс: GMT + 2 Години

Нова тема   Відповісти