Формула 1. Сезон 2020. Етап 9. Гран-Прі Тоскани. Гонка (13.09.2020) IPTV 1080p Ukr/Eng/Int

Нові коментарі

Нова тема   Відповісти
Автор Повідомлення
sergiyko.5 
Забанено
Забанено


З нами з: 25.02.16
Востаннє: 29.10.20
Повідомлень: 3651

2020-09-13 18:58  
Формула 1. Сезон 2020. Етап 9. Гран-Прі Тоскани. Гонка (13.09.2020) IPTV 1080p Ukr/Eng/Int


Формула 1. Сезон 2020. Етап 9. Гран-Прі Тоскани. Гонка (13.09.2020) IPTV 1080p Ukr/Eng/Int

Жанр: Перегони Формули 1
Країна: Італія
Телеканал: F1TV
Коментар: Максим Подзігун, англійською

Опис:
Гонка девятого етапу Гран-Прі Тоскани 2020 року.


Якість: IPTV

Відео: кодек: розмір кадру: 1920 х 1080 бітрейт: 5500 кб/с 25 кад/с
Аудіо 1: мова: українська кодек: 2.0 бітрейт: 192 кб/с
Аудіо 2: мова: англійська кодек: 2.0 бітрейт: 128 кб/с
Аудіо 3: мова: - кодек: 2.0 бітрейт: 128 кб/с
Тривалість:
02:59:17
Про файл:
General
Unique ID : 336221671324388752185875858924954104607 (0xFCF1F03FEF1EA0B07BF304FC9082B31F)
Complete name : D:\Documents\Torrents\SPORT\Formula 1\F1.2020.09.Italy.Mugello.Race.1080p.IPTV.Ukr.Eng.Int.
Format :
Format version : Version 4
File size : 7.27 GiB
Duration : 2 h 59 min
Overall bit rate : 5 814 kb/s
Movie name : rip by sergiyko
Encoded date : UTC 2020-09-13 16:52:37
Writing application : v49.0.0 ('Sick Of Losing Soulmates') 64-bit
Writing library : libebml v1.4.0 + v1.6.1

Video
ID : 1
Format : AVC
Format/Info : Advanced Video Codec
Format profile : [email protected]
Format settings : CABAC / 4 Ref Frames
Format settings, CABAC : Yes
Format settings, Reference : 4 frames
Format settings, GOP : M=4, N=50
Codec ID : V_MPEG4/ISO/AVC
Duration : 2 h 59 min
Bit rate mode : Constant
Bit rate : 5 500 kb/s
Width : 1 920 pixels
Height : 1 080 pixels
Display aspect ratio : 16:9
Frame rate mode : Constant
Frame rate : 25.000 FPS
Color space : YUV
Chroma subsampling : 4:2:0
Bit depth : 8 bits
Scan type : Progressive
Bits/(Pixel*Frame) : 0.106
Stream size : 6.87 GiB (95%)
Language : English
Default : Yes
Forced : No

Audio #1
ID : 2
Format : AC-3
Format/Info : Audio Coding 3
Commercial name : Dolby Digital
Codec ID : A_AC3
Duration : 2 h 59 min
Bit rate mode : Constant
Bit rate : 192 kb/s
Channel(s) : 2 channels
Channel layout : L R
Sampling rate : 48.0 kHz
Frame rate : 31.250 FPS (1536 SPF)
Compression mode : Lossy
Delay relative to video : 24 ms
Stream size : 246 MiB (3%)
Title : Максим Подзігун
Language : Ukrainian
Service kind : Complete Main
Default : Yes
Forced : Yes

Audio #2
ID : 3
Format : LC
Format/Info : Advanced Audio Codec Low Complexity
Codec ID : A_AAC-2
Duration : 2 h 59 min
Bit rate : 61.7 kb/s
Channel(s) : 2 channels
Channel layout : L R
Sampling rate : 44.1 kHz
Frame rate : 43.066 FPS (1024 SPF)
Compression mode : Lossy
Delay relative to video : 9 ms
Stream size : 79.0 MiB (1%)
Title : Sky Sports UK
Language : English
Default : No
Forced : No

Audio #3
ID : 4
Format : LC
Format/Info : Advanced Audio Codec Low Complexity
Codec ID : A_AAC-2
Duration : 2 h 59 min
Bit rate : 61.7 kb/s
Channel(s) : 2 channels
Channel layout : L R
Sampling rate : 44.1 kHz
Frame rate : 43.066 FPS (1024 SPF)
Compression mode : Lossy
Delay relative to video : 9 ms
Stream size : 79.0 MiB (1%)
Default : No
Forced : No
Скріншоти:


Запис/зведення: sergiyko



Срібний реліз (на рейтинг впливає 50% завантаженого)
 Трекер:    Зареєстрований   

Завантажити / скачати торрент



відео для новачків



 Зареєстрований:   2020-09-13 18:58
 Розмір:   7.27 GB 
 Оцінка:   10/10 (Голосів: 39)
   
N.W.A 
VIP


З нами з: 22.11.13
Востаннє: 31.10.20
Повідомлень: 355

2020-09-13 19:16  
Подяка автору за можливість переглянути, ще й в нормальній якості, оскільки нині випала робоча зміна щоб йому!
zsl2008 
Новенький


З нами з: 21.01.12
Востаннє: 25.10.20
Повідомлень: 2

2020-09-13 19:21  
Шановне панство!
Не тікайте з роздачі. Скачав сам — дай можливість скачати іншим.

misamisk 
Частий відвідувач


З нами з: 16.10.17
Востаннє: 31.10.20
Повідомлень: 35

2020-09-13 19:38  
zsl2008
Повністю підтримую

Ваш часовий пояс: GMT + 2 Години

Нова тема   Відповісти