Білл і Тед / Bill & Ted Face the Music (2020) UHD 2160p H.265 Ukr/Eng | Sub Eng

Нові коментарі

Нова тема   Відповісти
Автор Повідомлення
Neo_Men 
Свій


З нами з: 21.11.15
Востаннє: 18.09.20
Повідомлень: 111

2020-09-13 19:27  
Білл і Тед / Bill & Ted Face the Music (2020) UHD 2160p H.265 Ukr/Eng | Sub Eng

Білл і Тед / Bill & Ted Face the Music (2020) UHD 2160p H.265 Ukr/Eng | Sub Eng


Жанр: комедія
Країна: США, Канада, Італія



Кінокомпанія: TinRes Entertainment, Orion Pictures
Режисер: Дін Парізо
Актори: Кіану Рівз, Алекс Вінтер, Крістен Шаал, Самара Вівінг, Бригіта Ланді-Пейн, Вільям Седлер, Ентоні Керріган, Ерінн Хейс, Джейма Мейс, Хел Лендон мл.

Сюжет:
Білл і Тед почули пророцтво, що їх рок-н-рол врятує всесвіт від загибелі. Однак пройшло вже багато років, але ту саму пісню герої так і не написали. Крім того, їх шлюби розвалюються, а власні діти зляться на татусів. Раптом прибулець прибуває з майбутнього і нагадує, що якщо Білл і Тед не видадуть свій хіт, то всесвіту буде загрожувати неймовірна небезпека. Приятелі відправляються в нову подорож по різним епохам в пошуках натхнення. Компанію їм складуть їх дочки, кілька історичних особистостей і легендарних музикантів.


Тривалість: 01:31:54
Якість: 2160p
Відео:
кодек: H.265
розмір кадру: 3840 x 1608
бітрейт: 10,2 Mб/с

Аудіо # 1:
мова: українська
переклад: професійний дубльований [Line]
кодек: 2.0
бітрейт: 192 кб/с

Аудіо # 2:
мова: англійська
переклад: оригінал
кодек: E- 5.1
бітрейт: 640 кб/с

Субтитри:
мова: англійська
тип: програмні (м'які)
формат: *.srt
Info
General
Unique ID : 253548550812087075064128331513161809353 (0xBEBFACB4FA42A636A7842225F85F7DC9)
Complete name : Bill.and.Ted.Face.the.Music.(2020)..2160p.H.265.Ukr.Eng.
Format :
Format version : Version 4
File size : 7.06 GiB
Duration : 1 h 31 min
Overall bit rate : 11.0 Mb/s
Encoded date : UTC 2020-09-13 16:06:10
Writing application : v8.3.0 ('Over the Horizon') 64bit
Writing library : libebml v1.3.1 + v1.4.2

Video
ID : 1
Format : HEVC
Format/Info : High Efficiency Video Coding
Format profile : Main [email protected]@High
Codec ID : V_MPEGH/ISO/HEVC
Duration : 1 h 31 min
Bit rate : 10.2 Mb/s
Width : 3 840 pixels
Height : 1 608 pixels
Display aspect ratio : 2.40:1
Frame rate mode : Constant
Frame rate : 23.976 (24000/1001) FPS
Color space : YUV
Chroma subsampling : 4:2:0
Bit depth : 10 bits
Bits/(Pixel*Frame) : 0.069
Stream size : 6.53 GiB (92%)
Language : English
Default : Yes
Forced : No
Color range : Limited
Color primaries : BT.709
Transfer characteristics : BT.709
Matrix coefficients : BT.709

Audio #1
ID : 2
Format : AC-3
Format/Info : Audio Coding 3
Commercial name : Dolby Digital
Codec ID : A_AC3
Duration : 1 h 31 min
Bit rate mode : Constant
Bit rate : 192 kb/s
Channel(s) : 2 channels
Channel layout : L R
Sampling rate : 48.0 kHz
Frame rate : 31.250 FPS (1536 SPF)
Bit depth : 16 bits
Compression mode : Lossy
Stream size : 126 MiB (2%)
Title : DUB [Line]
Language : Ukrainian
Service kind : Complete Main
Default : Yes
Forced : No

Audio #2
ID : 3
Format : E-AC-3
Format/Info : Enhanced AC-3
Commercial name : Dolby Digital Plus
Codec ID : A_EAC3
Duration : 1 h 31 min
Bit rate mode : Constant
Bit rate : 640 kb/s
Channel(s) : 6 channels
Channel layout : L R C LFE Ls Rs
Sampling rate : 48.0 kHz
Frame rate : 31.250 FPS (1536 SPF)
Compression mode : Lossy
Stream size : 421 MiB (6%)
Language : English
Service kind : Complete Main
Default : No
Forced : No

Text #1
ID : 4
Format : UTF-8
Codec ID : S_TEXT/UTF8
Codec ID/Info : UTF-8 Plain Text
Duration : 1 h 31 min
Bit rate : 63 b/s
Count of elements : 1583
Stream size : 42.1 KiB (0%)
Title : Full
Language : English
Default : No
Forced : No

Text #2
ID : 5
Format : UTF-8
Codec ID : S_TEXT/UTF8
Codec ID/Info : UTF-8 Plain Text
Duration : 1 h 31 min
Bit rate : 68 b/s
Count of elements : 1733
Stream size : 45.4 KiB (0%)
Title : SDH
Language : English
Default : No
Forced : No

Menu
00:00:00.000 : en:Studio Logo
00:00:33.000 : en:Prologue
00:01:56.000 : en:Wedding
00:06:32.000 : en:Couples' Therapy
00:09:53.000 : en:Respecting the situation
00:20:54.000 : en:Plagiarizer
00:25:49.000 : en:Putting plans in place
00:30:05.000 : en:Assembling a band
00:41:57.000 : en:More members
00:47:09.000 : en:Hell
00:51:42.000 : en:Face the music
00:59:05.000 : en:The last member
01:10:00.000 : en:The prophesy
01:24:15.000 : en:End Credits
01:29:38.000 : en:One last thing to do
Скріншоти






Дякую eneyida.tv за укр. дорiжку

Джерело: &
Особиста оцінка: 0 - не дивився


 Трекер:    Зареєстрований   

Завантажити / скачати фільм українською



відео для новачків



 Зареєстрований:   2020-09-13 19:27
 Розмір:   7.06 GB 
 Оцінка фільму:   7.8/10 (Голосів: 6)
   
Інші релізи
General Franko-Safon 
Свій


З нами з: 03.07.20
Востаннє: 19.09.20
Повідомлень: 70

2020-09-13 19:49  
Приємний фільм. Особливо для шанувальників перших двох.
DeWitt_1912 
Свій


З нами з: 13.09.16
Востаннє: 19.09.20
Повідомлень: 129

2020-09-14 17:43  
Високобюджетний треш, як на мене.
Як комедія - не засміявся ні разу. Як фантастика - абсурд.
Та й зображення Смерті як дурника - перебір. Мені більш імпонує Смерть, яка зображена у серіалі "Надприродне".

Мені от цікаво, народ, вам було смішно під час перегляду? Чи це зі мною вже щось не так...

Ваш часовий пояс: GMT + 2 Години

Нова тема   Відповісти