Маяк / The Lighthouse (2019) 1080p 2xUkr/Eng | Sub Ukr/Eng

Нові коментарі

Нова тема   Відповісти
Автор Повідомлення
Anonymous 







2020-09-13 19:00  
Маяк / The Lighthouse (2019) 1080p 2xUkr/Eng | Sub Ukr/Eng

Маяк / The Lighthouse (2019) 1080p 2xUkr/Eng | Sub Ukr/Eng


Жанр: містика, драма, жахи
Країна: США, Канада



Кінокомпанія: A24, Regency Enterprises
Режисер: Роберт Еггерс
Актори: Віллем Дефо, Роберт Паттінсон, Валерія Караман та інші.

Сюжет:
Наприкінці XIX століття Ефраїма Вінслоу відправляють виконувати контрактну роботу доглядачем маяку на ізольований острів біля узбережжя Нової Англії, який вже знаходиться під наглядом літнього чоловіка на ім'я Томас Вейк


Тривалість: 01:49:09
Якість: 1080p
Відео:
кодек:
розмір кадру: 1296x1080
бітрейт: ~ 15200 кб/с

Аудіо # 1:
мова: українська
переклад: багатоголосий закадровий
кодек: 2.0
бітрейт: 192 кб/с

Аудіо # 2:
мова: українська
переклад: двоголосий закадровий
кодек: 5.1
бітрейт: 640 кб/с
Про озвучення
Любительський переклад й озвучення
Джерело: AniTube.in.ua
Переклад: Sashi Chak
Ролі озвучували: Anaive та Дядько Грей
Робота зі звуком: Anaive

Постер: zoomymba2012
Аудіо # 3:
мова: українська
переклад: двоголосий закадровий
кодек: 5.1
бітрейт: 1536 кб/с
Про озвучення
Любительський переклад й озвучення
Джерело: AniTube.in.ua
Переклад: Sashi Chak
Ролі озвучували: Anaive та Дядько Грей
Робота зі звуком: Anaive

Постер: zoomymba2012
Аудіо # 4:
мова: англійська
переклад: оригінал
кодек: 5.1
бітрейт: 1536 кб/с

Аудіо # 5:
мова: англійська
переклад: оригінал | Commentary
кодек: 2.0
бітрейт: 192 кб/с

Субтитри # 1-2:(написи)+(повні)
мова: українська
тип: програмні (м'які)
формат: *.

Субтитри # 3-4: (Повні, Commentary)
мова: англійська
тип: програмні (м'які)
формат: *.srt
Info
Код:
General
Complete name                            : The Lighthouse (2019) 1080p [2xukr_eng] [Video_Hurtom].
Format                                   :
Format version                           : Version 4
File size                                : 14.7 GiB
Duration                                 : 1 h 49 min
Overall bit rate                         : 19.3 Mb/s
Movie name                               : Маяк / The Lighthouse (2019)
Encoded date                             : UTC 2020-09-13 15:30:14
Writing application                      : v30.1.0 ('Forever And More') 64-bit
Writing library                          : libebml v1.3.6 + v1.4.9
Cover                                    : Yes
Attachments                              : cover.jpg

Video
ID                                       : 1
Format                                   : AVC
Format/Info                              : Advanced Video Codec
Format profile                           : [email protected]
Format settings                          : CABAC / 5 Ref Frames
Format settings, CABAC                   : Yes
Format settings, RefFrames               : 5 frames
Codec ID                                 : V_MPEG4/ISO/AVC
Duration                                 : 1 h 49 min
Bit rate                                 : 15.2 Mb/s
Width                                    : 1 296 pixels
Height                                   : 1 080 pixels
Display aspect ratio                     : 1.200
Frame rate mode                          : Constant
Frame rate                               : 23.976 (24000/1001) FPS
Color space                              : YUV
Chroma subsampling                       : 4:2:0
Bit depth                                : 8 bits
Scan type                                : Progressive
Bits/(Pixel*Frame)                       : 0.453
Stream size                              : 11.6 GiB (79%)
Writing library                          : core 158 r2988+50 ~ Encoded by Mocunaman in Portugal
Encoding settings                        : cabac=1 / ref=5 / deblock=1:-3:-3 / analyse=0x3:0x133 / me=umh / subme=10 / psy=1 / fade_compensate=0.00 / psy_rd=1.00:0.00 / mixed_ref=1 / me_range=32 / chroma_me=1 / trellis=2 / 8x8dct=1 / cqm=0 / deadzone=21,11 / fast_pskip=0 / chroma_qp_offset=-2 / threads=34 / lookahead_threads=8 / sliced_threads=0 / nr=0 / decimate=0 / interlaced=0 / bluray_compat=0 / constrained_intra=0 / fgo=0 / bframes=12 / b_pyramid=2 / b_adapt=2 / b_bias=0 / direct=3 / weightb=1 / open_gop=0 / weightp=2 / keyint=250 / keyint_min=23 / scenecut=40 / intra_refresh=0 / rc=2pass / mbtree=0 / bitrate=15200 / ratetol=1.0 / qcomp=0.70 / qpmin=0:0:0 / qpmax=69:69:69 / qpstep=4 / cplxblur=20.0 / qblur=0.5 / ip_ratio=1.30 / pb_ratio=1.20 / aq=3:0.60 / aq-sensitivity=10.00 / aq-factor=1.00:1.00:1.00 / aq2=0 / aq3=0 / zones=6,3086,b=2/3087,17254,b=1.8/95217,96792,b=2/110617,111017,b=2
Language                                 : English
Default                                  : Yes
Forced                                   : No

Audio #1
ID                                       : 2
Format                                   : AC-3
Format/Info                              : Audio Coding 3
Commercial name                          : Dolby Digital
Codec ID                                 : A_AC3
Duration                                 : 1 h 49 min
Bit rate mode                            : Constant
Bit rate                                 : 192 kb/s
Channel(s)                               : 2 channels
Channel layout                           : L R
Sampling rate                            : 48.0 kHz
Frame rate                               : 31.250 FPS (1536 SPF)
Bit depth                                : 16 bits
Compression mode                         : Lossy
Stream size                              : 150 MiB (1%)
Title                                    : 2.0 | 192
Language                                 : Ukrainian
Service kind                             : Complete Main
Default                                  : Yes
Forced                                   : No

Audio #2
ID                                       : 3
Format                                   : AC-3
Format/Info                              : Audio Coding 3
Commercial name                          : Dolby Digital
Codec ID                                 : A_AC3
Duration                                 : 1 h 49 min
Bit rate mode                            : Constant
Bit rate                                 : 640 kb/s
Channel(s)                               : 6 channels
Channel layout                           : L R C LFE Ls Rs
Sampling rate                            : 48.0 kHz
Frame rate                               : 31.250 FPS (1536 SPF)
Bit depth                                : 16 bits
Compression mode                         : Lossy
Stream size                              : 500 MiB (3%)
Title                                    : 5.1 | 640
Language                                 : Ukrainian
Service kind                             : Complete Main
Default                                  : No
Forced                                   : No

Audio #3
ID                                       : 4
Format                                   :
Format/Info                              : Digital Theater Systems
Codec ID                                 : A_DTS
Duration                                 : 1 h 49 min
Bit rate mode                            : Constant
Bit rate                                 : 1 536 kb/s
Channel(s)                               : 6 channels
Channel layout                           : C L R Ls Rs LFE
Sampling rate                            : 48.0 kHz
Frame rate                               : 93.750 FPS (512 SPF)
Bit depth                                : 16 bits
Compression mode                         : Lossy
Stream size                              : 1.17 GiB (8%)
Title                                    : 5.1 | 1536
Language                                 : Ukrainian
Default                                  : No
Forced                                   : No

Audio #4
ID                                       : 5
Format                                   :
Format/Info                              : Digital Theater Systems
Codec ID                                 : A_DTS
Duration                                 : 1 h 49 min
Bit rate mode                            : Constant
Bit rate                                 : 1 509 kb/s
Channel(s)                               : 6 channels
Channel layout                           : C L R Ls Rs LFE
Sampling rate                            : 48.0 kHz
Frame rate                               : 93.750 FPS (512 SPF)
Bit depth                                : 24 bits
Compression mode                         : Lossy
Stream size                              : 1.15 GiB (8%)
Title                                    : 5.1 | 1536
Language                                 : English
Default                                  : No
Forced                                   : No

Audio #5
ID                                       : 6
Format                                   : AC-3
Format/Info                              : Audio Coding 3
Commercial name                          : Dolby Digital
Codec ID                                 : A_AC3
Duration                                 : 1 h 49 min
Bit rate mode                            : Constant
Bit rate                                 : 192 kb/s
Channel(s)                               : 2 channels
Channel layout                           : L R
Sampling rate                            : 48.0 kHz
Frame rate                               : 31.250 FPS (1536 SPF)
Bit depth                                : 16 bits
Compression mode                         : Lossy
Stream size                              : 150 MiB (1%)
Title                                    : Commentary
Language                                 : English
Service kind                             : Complete Main
Default                                  : No
Forced                                   : No

Text #1
ID                                       : 7
Format                                   :
Codec ID                                 : S_TEXT/
Codec ID/Info                            : Advanced Sub Station Alpha
Duration                                 : 1 h 45 min
Bit rate                                 : 6 b/s
Count of elements                        : 42
Compression mode                         : Lossless
Stream size                              : 4.71 KiB (0%)
Title                                    : Forced
Language                                 : Ukrainian
Default                                  : Yes
Forced                                   : No

Text #2
ID                                       : 8
Format                                   :
Codec ID                                 : S_TEXT/
Codec ID/Info                            : Advanced Sub Station Alpha
Duration                                 : 1 h 41 min
Bit rate                                 : 78 b/s
Count of elements                        : 873
Compression mode                         : Lossless
Stream size                              : 58.7 KiB (0%)
Title                                    : Full
Language                                 : Ukrainian
Default                                  : No
Forced                                   : No

Text #3
ID                                       : 9
Format                                   : UTF-8
Codec ID                                 : S_TEXT/UTF8
Codec ID/Info                            : UTF-8 Plain Text
Duration                                 : 1 h 48 min
Bit rate                                 : 33 b/s
Count of elements                        : 908
Stream size                              : 26.2 KiB (0%)
Language                                 : English
Default                                  : No
Forced                                   : No

Text #4
ID                                       : 10
Format                                   : UTF-8
Codec ID                                 : S_TEXT/UTF8
Codec ID/Info                            : UTF-8 Plain Text
Duration                                 : 1 h 46 min
Bit rate                                 : 73 b/s
Count of elements                        : 1641
Stream size                              : 57.6 KiB (0%)
Title                                    : Commentary
Language                                 : English
Default                                  : No
Forced                                   : No

Menu
00:00:00.000                             : en:Chapter 01
00:06:49.534                             : en:Chapter 02
00:11:47.957                             : en:Chapter 03
00:13:44.949                             : en:Chapter 04
00:19:52.900                             : en:Chapter 05
00:25:33.949                             : en:Chapter 06
00:29:54.793                             : en:Chapter 07
00:36:23.181                             : en:Chapter 08
00:41:28.653                             : en:Chapter 09
00:51:00.307                             : en:Chapter 10
00:55:48.303                             : en:Chapter 11
01:03:43.695                             : en:Chapter 12
01:09:40.718                             : en:Chapter 13
01:19:01.820                             : en:Chapter 14
01:24:46.707                             : en:Chapter 15
01:39:42.602                             : en:Chapter 16
Скріншоти


Джерело:
Особиста оцінка: 0 - не дивився


Золотий реліз (завантажене не впливає на рейтинг)
 Трекер:    Зареєстрований   

Завантажити / скачати фільм українською



відео для новачків



 Зареєстрований:   2020-09-13 19:00
 Розмір:   14.69 GB 
 Оцінка фільму:   7.8/10 (Голосів: 4)
   
Інші релізи
   Маяк / The Lighthouse (2019) AVC 2xUkr/Eng | Sub Ukr/Eng staf777  16 / 0   2.66 GB   2020-09-12 14:01 
   Маяк / The Lighthouse (2019) 720p 2xUkr/Eng | Sub Ukr/Eng staf777  10 / 0   6.15 GB   2020-09-12 10:19 
   Маяк / The Lighthouse (2019) BDRiр-AVC Ukr/Eng | Sub Ukr Ліхтарник  24 / 0   1.68 GB   2020-05-10 23:28 
   Маяк / The Lighthouse (2019) BDRiр 1080р Ukr/Eng | Sub Ukr Ліхтарник  24 / 0   10.62 GB   2020-05-10 23:15 
sandman 
VIP


З нами з: 12.08.12
Востаннє: 18.09.20
Повідомлень: 361

2020-09-13 20:58  
може, варто вказати, що звук MVO – професійний, а DVO – любительський?
Anonymous 







2020-09-13 22:21  
sandman написано:
може, варто вказати, що звук MVO – професійний, а DVO – любительський?

є вибір
це вказувати не дуже бачу сенсу
тут два різних аудіо і кому , який більше сподобається нехай і дивляться

Dark Invader 
Модератор відео


З нами з: 06.01.11
Востаннє: 19.09.20
Повідомлень: 2935

2020-09-13 22:33  
Anonymous написано:

є вибір
це вказувати не дуже бачу сенсу

Вкажіть, що перше озвучення від SWEET TV. Бо так дійсно не ясно, що воно професійне, а не аматорське.

-_-B_Е_N_D_E_R-_- 
VIP


З нами з: 04.03.20
Востаннє: 19.09.20
Повідомлень: 517

2020-09-13 22:43  
Dark Invader написано:
сервіс

не згадуйте такі слова під релізами, бо це все знаходиться через гугл пошук і в один чудовий момен як пани з цієї контори побачуть що їх усі озвучки вкрали можуть виникнути неприємності

tilda4334 
VIP


З нами з: 15.08.14
Востаннє: 18.09.20
Повідомлень: 1044

2020-09-13 22:43  
Dark Invader написано:
Вкажіть, що перше озвучення від SWEET TV. Бо так дійсно не ясно, що воно професійне, а не аматорське.

Підтримую. Хочеться знати що вантажиш.

fl_fl 
Відео Гуртом - фільмокрай
Відео Гуртом - фільмокрай


З нами з: 26.05.09
Востаннє: 19.09.20
Повідомлень: 3304

2020-09-13 22:44  
То припиніть цитувати, чи затріть свої повідомлення. Але можна просто вказувати логотип, щоб гугл-пошук не знаходив.
Dark Invader 
Модератор відео


З нами з: 06.01.11
Востаннє: 19.09.20
Повідомлень: 2935

2020-09-13 22:48  
-_-B_Е_N_D_E_R-_- написано:
не згадуйте такі слова під релізами, бо це все знаходиться через гугл пошук і в один чудовий момен як пани з цієї контори побачуть що їх усі озвучки вкрали можуть виникнути неприємності

Так тут під кожним релізом з чужим озвученням може таке виникнути. То що, тепер ніде не вказувати звідки те озвучення?

-_-B_Е_N_D_E_R-_- 
VIP


З нами з: 04.03.20
Востаннє: 19.09.20
Повідомлень: 517

2020-09-13 22:53  
Dark Invader написано:
Так тут під кожним релізом з чужим озвученням може таке виникнути.

яка ще vod платформа робить озвучки до фільмів?
Dark Invader написано:
. То що, тепер ніде не вказувати звідки те озвучення?

маєте тб, itunes там що бажаєте те і вказуйте

Dark Invader 
Модератор відео


З нами з: 06.01.11
Востаннє: 19.09.20
Повідомлень: 2935

2020-09-13 23:49  
-_-B_Е_N_D_E_R-_- написано:
яка ще vod платформа робить озвучки до фільмів?

Поки ніяка.

-_-B_Е_N_D_E_R-_- написано:
маєте тб, itunes там що бажаєте те і вказуйте

А ви думаєте, що вони такі тупі, що не знайдуть свої дубляжі та озвучення тут, якщо захочуть? Тут і без Гугла все прекрасно знайдеться.

Ну тоді хоча б студію можна вказувати, щоб було зрозуміло, що це проф. озвучення.

-_-B_Е_N_D_E_R-_- 
VIP


З нами з: 04.03.20
Востаннє: 19.09.20
Повідомлень: 517

2020-09-14 00:00  
Dark Invader написано:
А ви думаєте, що вони такі тупі, що не знайдуть свої дубляжі та озвучення тут, якщо захочуть?

справа не втім, телеканалам все одно треба показувати якийсь контент інакше у них реклами не куплять, нема реклами то і нема їх каналу, тим більше зараз є закон про мову вони так якби зобовязані свій контент озвучувати українською

lazey 
Новенький


З нами з: 06.03.09
Востаннє: 18.09.20
Повідомлень: 8

2020-09-18 18:07  
Чудові коменти! Відразу ясно що стрічка цікава і без жодного спойлеру! Happy
Ваш часовий пояс: GMT + 2 Години

Нова тема   Відповісти