Пси 3. В ім'я принципів / Psy 3. W imię zasad (2020) 720p Pol | sub Ukr/Pol

Нові коментарі

Нова тема   Відповісти
Автор Повідомлення
ivan vyrvyvuho 
VIP


З нами з: 19.08.12
Востаннє: 04.12.20
Повідомлень: 1177

2020-09-13 13:01  
Пси 3. В ім'я принципів / Psy 3. W imię zasad (2020) 720p Pol | sub Ukr/Pol

Пси 3. В ім'я принципів / Psy 3. W imię zasad (2020) 720p Pol | sub Ukr/Pol


Жанр: бойовик, кримінальний, драма
Країна: Польща



Кінокомпанія: Wonder Studio, Polsat, Cyfrowy Polsat
Режисер: Владислав Пасіковський / Władysław Pasikowski
Актори: Боґуслав Лінда / Bogusław Linda, Цезари Пазура / Cezary Pazura, Марцін Дороцінський / Marcin Dorociński, Ян Фрич / Jan Frycz, Себастіан Фаб'янський / Sebastian Fabijański, Аркадіуш Якубік / Arkadiusz Jakubik, Томаш Шухардт / Tomasz Schuchardt, Мірослав Бака / Mirosław Baka, Домініка Вало / Dominika Walo, Артур Жмієвський / Artur Żmijewski, Войцех Зелінський / Wojciech Zieliński, Ерик Любос / Eryk Lubos, Едвард Лінде-Любашенко / Edward Linde-Lubaszenko, Яцек Белер / Jacek Beler, Домініка Клужняк / Dominika Kluźniak, Маґдалена Войнаровська / Magdalena Wojnarowska, Александра Лінда / Aleksandra Linda та інші.

Сюжет:
Франц виходить з в'язниці після 25 років ув'язнення. На волі все змінилося: нова Польща, яку він ніколи не бачив, нові люди, нові принципи. Що чекає на нього та як знайти себе в суспільстві? Але минуле йде за ним слідом і починає тиснути, зрештою Франц зустрічається з давнім товаришем Новим і ця зустріч змінить усе їхнє життя.


Тривалість: 02:05:33
Якість:
Відео:
кодек:
розмір кадру: 1280 х 536
бітрейт: 4536 кб/с

Аудіо:
мова: польська, російська
переклад: оригінал
кодек: 5.1
бітрейт: 640 кб/с

Субтитри:
мова: українська
тип: програмні (м'які)
формат: *.srt
переклад: володимирко2
редагування: ivan vyrvyvuho

Субтитри:
мова: польська
тип: програмні (м'які)
формат: *.srt
Скріншоти









Звіт Медіаінфо
General
Unique ID : 112305917239128841208211698138562583293 (0x547D55388F1839BA8869E10491825AFD)
Complete name : D:\торент\Psy 3. W imie zasad (2020) [Pol,Sub Ukr,Pol] 720p.
Format :
Format version : Version 4
File size : 4.54 GiB
Duration : 2 h 5 min
Overall bit rate : 5 177 kb/s
Movie name : P2P
Encoded date : UTC 2020-09-13 09:35:57
Writing application : v43.0.0 ('The Quartermaster') 64-bit
Writing library : libebml v1.3.10 + v1.5.2

Video
ID : 1
Format : AVC
Format/Info : Advanced Video Codec
Format profile : [email protected]
Format settings : CABAC / 4 Ref Frames
Format settings, CABAC : Yes
Format settings, Reference : 4 frames
Format settings, GOP : M=4, N=24
Codec ID : V_MPEG4/ISO/AVC
Duration : 2 h 5 min
Bit rate : 4 536 kb/s
Nominal bit rate : 4 777 kb/s
Width : 1 280 pixels
Height : 536 pixels
Display aspect ratio : 2.40:1
Frame rate mode : Constant
Frame rate : 24.000 FPS
Color space : YUV
Chroma subsampling : 4:2:0
Bit depth : 8 bits
Scan type : Progressive
Bits/(Pixel*Frame) : 0.275
Stream size : 3.98 GiB (88%)
Writing library : core 155 r2917M 0a84d98
Encoding settings : cabac=1 / ref=3 / deblock=1:0:0 / analyse=0x3:0x113 / me=hex / subme=7 / psy=1 / psy_rd=1.00:0.00 / mixed_ref=1 / me_range=16 / chroma_me=1 / trellis=1 / 8x8dct=1 / cqm=0 / deadzone=21,11 / fast_pskip=1 / chroma_qp_offset=-2 / threads=12 / lookahead_threads=2 / sliced_threads=0 / nr=0 / decimate=1 / interlaced=0 / bluray_compat=0 / constrained_intra=0 / bframes=3 / b_pyramid=2 / b_adapt=1 / b_bias=0 / direct=1 / weightb=1 / open_gop=0 / weightp=2 / keyint=24 / keyint_min=2 / scenecut=40 / intra_refresh=0 / rc_lookahead=24 / rc=cbr / mbtree=1 / bitrate=4777 / ratetol=1.0 / qcomp=0.60 / qpmin=0 / qpmax=69 / qpstep=4 / vbv_maxrate=4777 / vbv_bufsize=4777 / nal_hrd=none / filler=0 / ip_ratio=1.40 / aq=1:1.00
Language : Polish
Default : Yes
Forced : No

Audio
ID : 2
Format : AC-3
Format/Info : Audio Coding 3
Commercial name : Dolby Digital
Codec ID : A_AC3
Duration : 2 h 5 min
Bit rate mode : Constant
Bit rate : 640 kb/s
Channel(s) : 6 channels
Channel layout : L R C LFE Ls Rs
Sampling rate : 48.0 kHz
Frame rate : 31.250 FPS (1536 SPF)
Bit depth : 16 bits
Compression mode : Lossy
Stream size : 575 MiB (12%)
Title : POLSKI DD 5.1
Language : Polish
Service kind : Complete Main
Default : Yes
Forced : No

Text #1
ID : 3
Format : UTF-8
Codec ID : S_TEXT/UTF8
Codec ID/Info : UTF-8 Plain Text
Duration : 1 h 57 min
Bit rate : 73 b/s
Count of elements : 1214
Stream size : 62.9 KiB (0%)
Language : Ukrainian
Default : Yes
Forced : No

Text #2
ID : 4
Format : UTF-8
Codec ID : S_TEXT/UTF8
Codec ID/Info : UTF-8 Plain Text
Duration : 2 h 5 min
Bit rate : 50 b/s
Count of elements : 1190
Stream size : 46.7 KiB (0%)
Language : Polish
Default : No
Forced : No

Menu
00:00:00.000 : :(01)00:00:00:000
00:08:55.416 : :(02)00:08:55:416
00:19:44.291 : :(03)00:19:44:291
00:30:14.458 : :(04)00:30:14:458
00:39:33.166 : :(05)00:39:33:166
00:48:40.791 : :(06)00:48:40:791
01:00:34.458 : :(07)01:00:34:458
01:08:07.208 : :(08)01:08:07:208
01:18:23.541 : :(09)01:18:23:541
01:27:17.125 : :(10)01:27:17:125
01:38:21.041 : :(11)01:38:21:041
01:51:09.375 : :(12)01:51:09:375

Джерело:
Особиста оцінка: 7 - непоганий бойовик.
Перша частина: Пси / Psy (1992)
Друга частина: Пси 2. Остання кров / Psy 2. Ostatnia krew (1994)


Золотий реліз (завантажене не впливає на рейтинг)
 Трекер:    Зареєстрований   

Завантажити / скачати фільм українською



відео для новачків



 Зареєстрований:   2020-09-13 13:01
 Розмір:   4.54 GB 
 Оцінка фільму:   6.6/10 (Голосів: 9)
   
Гонта 
Поважний учасник


З нами з: 16.12.09
Востаннє: 05.12.20
Повідомлень: 166

2020-09-17 20:53  
Суперфільм!!! Дякую за реліз і переклад!
szo4 
Новенький


З нами з: 13.12.07
Востаннє: 07.10.20
Повідомлень: 17

2020-09-22 21:48  
Дякую за переклад. Сподіваюся що фільм буде добрий.
володимирко2 
Оцифрування книг Гуртом


З нами з: 28.02.10
Востаннє: 24.11.20
Повідомлень: 1250

2020-09-28 19:25  
Фільм динамічний. Хоч би заради перестрілки варто подивитися.
sacorp 
Новенький


З нами з: 14.10.20
Востаннє: 28.10.20
Повідомлень: 1

2020-10-14 18:23  
Шкода що нікого немає на роздачі, але маю надію що хтось зявиться.
Ваш часовий пояс: GMT + 2 Години

Нова тема   Відповісти