Формула 2. Сезон 2020. Етап 9. Гран-Прі Тоскани. Перша гонка (12.09.2020) 1080p Ukr/Eng/Int

Нові коментарі

Нова тема   Відповісти
Автор Повідомлення
sergiyko.5 
VIP


З нами з: 25.02.16
Востаннє: 26.10.20
Повідомлень: 3618

2020-09-13 11:58  
Формула 2. Сезон 2020. Етап 9. Гран-Прі Тоскани. Перша гонка (12.09.2020) 1080p Ukr/Eng/Int


Формула 2. Сезон 2020. Етап 9. Гран-Прі Тоскани. Перша гонка (12.09.2020) 1080p Ukr/Eng/Int

Жанр: Перегони Формули 2
Країна: Італія
Телеканал: F1TV
Коментар: Максим Подзігун, англійською

Опис:
Перша гонка девятого етапу Гран-Прі Тоскани 2020 року.


Якість:

Відео: кодек: розмір кадру: 1920 х 1080 бітрейт: 5500 кб/с 25 кад/с
Аудіо 1: мова: українська кодек: 2.0 бітрейт: 192 кб/с
Аудіо 2: мова: англійська кодек: 2.0 бітрейт: 192 кб/с
Аудіо 3: мова: - кодек: 2.0 бітрейт: 192 кб/с
Тривалість:
01:25:30
Про файл:
General
Unique ID : 228859505200251405148036184853508801099 (0xAC2CBCC70D1EC7A759F0AC4D0F94424B)
Complete name : D:\Documents\Torrents\SPORT\Formula 2\Formula2.2020.09.Italy.Mugello.Race1.1080p..Ukr.Eng.Int.
Format :
Format version : Version 4
File size : 3.86 GiB
Duration : 1 h 25 min
Overall bit rate mode : Constant
Overall bit rate : 6 462 kb/s
Movie name : rip by sergiyko
Encoded date : UTC 2020-09-13 09:44:05
Writing application : v49.0.0 ('Sick Of Losing Soulmates') 64-bit
Writing library : libebml v1.4.0 + v1.6.1

Video
ID : 1
Format : AVC
Format/Info : Advanced Video Codec
Format profile : [email protected]
Format settings : CABAC / 4 Ref Frames
Format settings, CABAC : Yes
Format settings, Reference : 4 frames
Format settings, GOP : M=4, N=50
Codec ID : V_MPEG4/ISO/AVC
Duration : 1 h 25 min
Bit rate mode : Constant
Bit rate : 5 500 kb/s
Width : 1 920 pixels
Height : 1 080 pixels
Display aspect ratio : 16:9
Frame rate mode : Constant
Frame rate : 25.000 FPS
Color space : YUV
Chroma subsampling : 4:2:0
Bit depth : 8 bits
Scan type : Progressive
Bits/(Pixel*Frame) : 0.106
Stream size : 3.28 GiB (85%)
Language : English
Default : Yes
Forced : No

Audio #1
ID : 2
Format : AC-3
Format/Info : Audio Coding 3
Commercial name : Dolby Digital
Codec ID : A_AC3
Duration : 1 h 25 min
Bit rate mode : Constant
Bit rate : 192 kb/s
Channel(s) : 2 channels
Channel layout : L R
Sampling rate : 48.0 kHz
Frame rate : 31.250 FPS (1536 SPF)
Compression mode : Lossy
Delay relative to video : -40 ms
Stream size : 117 MiB (3%)
Title : Максим Подзігун
Language : Ukrainian
Service kind : Complete Main
Default : Yes
Forced : Yes

Audio #2
ID : 3
Format : MPEG Audio
Format version : Version 1
Format profile : Layer 2
Codec ID : A_MPEG/L2
Codec ID/Hint : MP2
Duration : 1 h 25 min
Bit rate mode : Constant
Bit rate : 384 kb/s
Channel(s) : 2 channels
Sampling rate : 44.1 kHz
Frame rate : 38.281 FPS (1152 SPF)
Compression mode : Lossy
Delay relative to video : -34 ms
Stream size : 235 MiB (6%)
Language : English
Default : No
Forced : No

Audio #3
ID : 4
Format : MPEG Audio
Format version : Version 1
Format profile : Layer 2
Codec ID : A_MPEG/L2
Codec ID/Hint : MP2
Duration : 1 h 25 min
Bit rate mode : Constant
Bit rate : 384 kb/s
Channel(s) : 2 channels
Sampling rate : 44.1 kHz
Frame rate : 38.281 FPS (1152 SPF)
Compression mode : Lossy
Delay relative to video : -34 ms
Stream size : 235 MiB (6%)
Default : No
Forced : No
Скріншоти:


Запис/зведення: sergiyko



Срібний реліз (на рейтинг впливає 50% завантаженого)
 Трекер:    Зареєстрований   

Завантажити / скачати торрент



відео для новачків



 Зареєстрований:   2020-09-13 11:58
 Розмір:   3.86 GB 
 Оцінка:   10/10 (Голосів: 7)
   
Ваш часовий пояс: GMT + 2 Години

Нова тема   Відповісти