Ім'я Рози (Сезон 1) / Il nome della Rosa / The Name of the Rose (Season 1) (2019) 720p

Нові коментарі

Нова тема   Відповісти
Автор Повідомлення
Anonymous 







2020-09-12 21:15  
Ім'я Рози (Сезон 1) / Il nome della Rosa / The Name of the Rose (Season 1) (2019) 720p

Ім'я Рози (Сезон 1) / Il nome della Rosa / The Name of the Rose (Season 1) (2019) 720p


Жанр: драма, трилер
Країна: Італія, Німеччина



Кінокомпанія: 11 Marzo Film, Palomar, Rai Fiction
Режисер: Джакомо Баттіато (Giacomo Battiato)
Актори: Джон Туртурро (John Turturro), Руперт Еверетт (Rupert Everett), Даміан Хардунг (Damian Hardung), Фабріціо Бентівольо (Fabrizio Bentivoglio), Грета Скарано (Greta Scarano) та інші

Сюжет:
Середньовіччя, 1327 рік, Італія.
Один з віддалених монастирів сколихнув ряд загадкових смертей монахів. Францисканський чернець Вільгельм Баскервільський приїхав, аби знайти винуватця в гибелі ченців. За всіма цими смертями криється страшна таємниця, і Вільгельмові з молодим послушником доведеться розкрити її.

Тривалість: 1 серія: ~50 хв. (цілком серій: 8)
Перелік серій
Episode 1.1
Episode 1.2
Episode 1.3
Episode 1.4
Episode 1.5
Episode 1.6
Episode 1.7
Episode 1.8
Якість:
Відео:
кодек:
розмір кадру: 1280 x 720
бітрейт: ~6500 кб/с

Аудіо:
мова: українська
переклад: професійний дубльований
кодек: 2.0
бітрейт: 192 кб/с

Джерело озвучення:


Субтитри (форсовані):
мова: українська
тип: програмні (м'які)
формат: *.srt
примітка: набрано з перекладу 1+1
Info
General
Unique ID : 299870823178769100360168249034500941471 (0xE19905105AD2DFBAFCA453730B5B269F)
Complete name : F:\Support\series\The Name of the Rose (Season 1) [, 720p, Ukr]\The.Name.of.the.Rose.S01E01..720p.Ukr.
Format :
Format version : Version 4
File size : 2.39 GiB
Duration : 50 min 46 s
Overall bit rate : 6 726 kb/s
Encoded date : UTC 2020-09-12 08:25:19
Writing application : v50.0.0 ('Awakenings') 64-bit
Writing library : libebml v1.4.0 + v1.6.2

Video
ID : 1
Format : AVC
Format/Info : Advanced Video Codec
Format profile : [email protected]
Format settings : CABAC / 9 Ref Frames
Format settings, CABAC : Yes
Format settings, Reference : 9 frames
Codec ID : V_MPEG4/ISO/AVC
Duration : 50 min 46 s
Bit rate : 6 533 kb/s
Width : 1 280 pixels
Height : 720 pixels
Display aspect ratio : 16:9
Frame rate mode : Constant
Frame rate : 25.000 FPS
Color space : YUV
Chroma subsampling : 4:2:0
Bit depth : 8 bits
Scan type : Progressive
Bits/(Pixel*Frame) : 0.284
Stream size : 2.32 GiB (97%)
Writing library : core 152 r2851kMod ba24899
Encoding settings : cabac=1 / ref=9 / deblock=1:-3:-3 / analyse=0x3:0x133 / me=umh / subme=11 / psy=1 / fade_compensate=0.00 / psy_rd=1.00:0.00 / mixed_ref=1 / me_range=32 / chroma_me=1 / trellis=2 / 8x8dct=1 / cqm=0 / deadzone=21,11 / fast_pskip=1 / chroma_qp_offset=-2 / threads=22 / lookahead_threads=5 / sliced_threads=0 / nr=0 / decimate=1 / interlaced=0 / bluray_compat=0 / constrained_intra=0 / bframes=10 / b_pyramid=2 / b_adapt=2 / b_bias=0 / direct=3 / weightb=1 / open_gop=0 / weightp=2 / keyint=250 / keyint_min=25 / scenecut=40 / intra_refresh=0 / rc=crf / mbtree=0 / crf=15.0000 / qcomp=0.65 / qpmin=0 / qpmax=69 / qpstep=4 / ip_ratio=1.25 / pb_ratio=1.20 / aq=1:0.60
Language : English
Default : Yes
Forced : No

Audio
ID : 2
Format : AC-3
Format/Info : Audio Coding 3
Commercial name : Dolby Digital
Codec ID : A_AC3
Duration : 50 min 42 s
Bit rate mode : Constant
Bit rate : 192 kb/s
Channel(s) : 2 channels
Channel layout : L R
Sampling rate : 48.0 kHz
Frame rate : 31.250 FPS (1536 SPF)
Compression mode : Lossy
Stream size : 69.6 MiB (3%)
Title : 1+1
Language : Ukrainian
Service kind : Complete Main
Default : Yes
Forced : No

Text
ID : 3
Format : UTF-8
Codec ID : S_TEXT/UTF8
Codec ID/Info : UTF-8 Plain Text
Duration : 3 s 180 ms
Bit rate : 47 b/s
Count of elements : 1
Stream size : 19.0 Bytes (0%)
Language : Ukrainian
Default : Yes
Forced : Yes

Menu
00:00:00.000 : en:Chapter 01
00:09:30.200 : en:Chapter 02
00:18:39.640 : en:Chapter 03
00:29:31.200 : en:Chapter 04
00:39:37.640 : en:Chapter 05
00:46:33.360 : en:Chapter 06
Скріншоти
Джерело:
Особиста оцінка: 0 - не дивився


Бронзовий реліз (на рейтинг впливає 75% завантаженого)
 Трекер:    Зареєстрований   

Завантажити / скачати серіал українською



відео для новачків



 Зареєстрований:   2020-09-12 21:15
 Розмір:   20.33 GB 
 Оцінка серіалу:   9.7/10 (Голосів: 6)
   
ppk21 
Поважний учасник


З нами з: 28.02.09
Востаннє: 04.12.20
Повідомлень: 166

2020-10-02 10:01  
Чудовий серіал. Набагато ближчий до книги, ніж старий фільм 1986 року. І на диво пристойне озвучення від олігархічного гімноканалу "Г+Г" (1+1)
Ваш часовий пояс: GMT + 2 Години

Нова тема   Відповісти