Грімм (Сезон 6) / Grimm (Season 6) (2017) 720p Ukr/Eng | sub Eng

Нові коментарі

Нова тема   Відповісти
Автор Повідомлення
Anonymous 







2020-09-12 09:04  
Грімм (Сезон 6) / Grimm (Season 6) (2017) 720p Ukr/Eng | sub Eng

Грімм (Сезон 6) / Grimm (Season 6) (2017) 720p Ukr/Eng | sub Eng


Жанр: фентезі, драма, жахи
Країна: США



Кінокомпанія: GK Productions, Hazy Mills Productions, Universal Television
Режисер: Стівен Карпентер (Stephen Carpenter), Девід Грінволт (David Greenwalt), Джим Коуф (Jim Kouf)
Актори: Дейв Ґвінтолі (David Giuntoli), Расселл Горнсбі (Russell Hornsby), Сайлас Вейр Мітчелл (Silas Weir Mitchell), Бітсі Таллоч (Elizabeth Tulloch) та інші

Сюжет:
Молодий детектив Нік Беркхардт є спадкоємцем роду Грімм - мисливців за нечистю, яка живе у світі людей. Всі нащадки Гриммів володіють ключовою здатністю - вони можуть бачити справжню сутність злих тварюк, під якою б личиною вони не ховалися. Соратником Ніка стає перевихований "Різник" - перевертень Едді Монро, що допомагає йому пізнавати таїнства древньої міфології.


Тривалість: 1 серія: ~43 хв. (цілком серій: 13)
Перелік серій
01) Fugitive
02) Trust Me Knot
03) Oh Captain, My Captain
04) El Cuegle
05) The Seven Year Itch
06) Breakfast in Bed
07) Blind Love
08) The Son Also Rises
09) Tree People
10) Blood Magic
11) Where the Wild Things Were
12) Zerstörer Shrugged
13) The End
Якість:
Відео:
кодек:
розмір кадру: 1280 x 720
бітрейт: ~4500 кб/с

Аудіо # 1:
мова: українська
переклад: багатоголосий закадровий
кодек: 2.0
бітрейт: 192 кб/с

Аудіо # 2:
мова: англійська
переклад: оригінал
кодек: 5.1
бітрейт: 640 кб/с

Джерело озвучення:


Субтитри (форсовані, у серіях 6-9):
мова: українська
тип: програмні (м'які)
формат: *.srt

Субтитри:
мова: англійська
тип: пререндерні
формат: *.pgs
Info
General
Unique ID : 250698506348759032836016748725517235034 (0xBC9AC6AA7E4F9822D6FF93853875335A)
Complete name : F:\Records\ukr\Grimm\ready\Grimm (Season 6) [, 720p, Ukr, Eng]\Grimm. s06e06. Breakfast in Bed.
Format :
Format version : Version 4
File size : 1.58 GiB
Duration : 43 min 7 s
Overall bit rate : 5 236 kb/s
Encoded date : UTC 2020-09-12 14:29:46
Writing application : v50.0.0 ('Awakenings') 64-bit
Writing library : libebml v1.4.0 + v1.6.2

Video
ID : 1
Format : AVC
Format/Info : Advanced Video Codec
Format profile : [email protected]
Format settings : CABAC / 9 Ref Frames
Format settings, CABAC : Yes
Format settings, Reference : 9 frames
Codec ID : V_MPEG4/ISO/AVC
Duration : 43 min 7 s
Bit rate : 4 387 kb/s
Width : 1 280 pixels
Height : 720 pixels
Display aspect ratio : 16:9
Frame rate mode : Constant
Frame rate : 23.976 (24000/1001) FPS
Color space : YUV
Chroma subsampling : 4:2:0
Bit depth : 8 bits
Scan type : Progressive
Bits/(Pixel*Frame) : 0.199
Stream size : 1.32 GiB (84%)
Writing library : core 148 r2692kMod 64f4e24
Encoding settings : cabac=1 / ref=9 / deblock=1:-3:-3 / analyse=0x3:0x113 / me=umh / subme=10 / psy=1 / fade_compensate=0.00 / psy_rd=1.00:0.00 / mixed_ref=1 / me_range=32 / chroma_me=1 / trellis=2 / 8x8dct=1 / cqm=0 / deadzone=21,11 / fast_pskip=0 / chroma_qp_offset=-2 / threads=42 / lookahead_threads=5 / sliced_threads=0 / nr=0 / decimate=1 / interlaced=0 / bluray_compat=0 / constrained_intra=0 / fgo=0 / bframes=8 / b_pyramid=2 / b_adapt=2 / b_bias=0 / direct=3 / weightb=1 / open_gop=0 / weightp=2 / keyint=250 / keyint_min=23 / scenecut=40 / intra_refresh=0 / rc=crf / mbtree=0 / crf=18.0000 / qcomp=0.60 / qpmin=0 / qpmax=69 / qpstep=4 / ip_ratio=1.40 / pb_ratio=1.30 / aq=3:0.80
Language : English
Default : Yes
Forced : No

Audio #1
ID : 2
Format : AC-3
Format/Info : Audio Coding 3
Commercial name : Dolby Digital
Codec ID : A_AC3
Duration : 43 min 7 s
Bit rate mode : Constant
Bit rate : 192 kb/s
Channel(s) : 2 channels
Channel layout : L R
Sampling rate : 48.0 kHz
Frame rate : 31.250 FPS (1536 SPF)
Compression mode : Lossy
Stream size : 59.2 MiB (4%)
Title : Новий
Language : Ukrainian
Service kind : Complete Main
Default : Yes
Forced : No

Audio #2
ID : 3
Format : AC-3
Format/Info : Audio Coding 3
Commercial name : Dolby Digital
Codec ID : A_AC3
Duration : 43 min 7 s
Bit rate mode : Constant
Bit rate : 640 kb/s
Channel(s) : 6 channels
Channel layout : L R C LFE Ls Rs
Sampling rate : 48.0 kHz
Frame rate : 31.250 FPS (1536 SPF)
Compression mode : Lossy
Stream size : 197 MiB (12%)
Language : English
Service kind : Complete Main
Default : No
Forced : No

Text #1
ID : 4
Format : UTF-8
Codec ID : S_TEXT/UTF8
Codec ID/Info : UTF-8 Plain Text
Duration : 2 min 46 s
Bit rate : 44 b/s
Count of elements : 33
Stream size : 927 Bytes (0%)
Language : Ukrainian
Default : Yes
Forced : Yes

Text #2
ID : 5
Format : PGS
Muxing mode : zlib
Codec ID : S_HDMV/PGS
Codec ID/Info : Picture based subtitle format used on BDs/HD-DVDs
Duration : 42 min 17 s
Bit rate : 51.9 kb/s
Count of elements : 1486
Stream size : 15.7 MiB (1%)
Language : English
Default : No
Forced : No

Menu
00:00:00.000 : en:00:00:00.000
00:06:33.184 : en:00:06:33.184
00:20:07.998 : en:00:20:07.998
00:35:20.368 : en:00:35:20.368
Скріншоти

Українську доріжку та форсовані субтитри взято з релізу https://toloka.to/t113974

Джерело: &
Особиста оцінка: 0 - не дивився





Бронзовий реліз (на рейтинг впливає 75% завантаженого)
 Трекер:    Зареєстрований   

Завантажити / скачати серіал українською



відео для новачків



 Зареєстрований:   2020-09-12 17:12
 Розмір:   21.25 GB 
 Оцінка серіалу:   10/10 (Голосів: 1)
   
Dr.S 
Поважний учасник


З нами з: 30.05.17
Востаннє: 30.11.20
Повідомлень: 151

2020-09-12 14:49  
в тому релізі ще написано, що є саби до неозвучених моментів
Anonymous 







2020-09-12 15:37  
Dr.S написано:
в тому релізі ще написано, що є саби до неозвучених моментів

Упс, прогледів, оновлю роздачу.

Dr.S 
Поважний учасник


З нами з: 30.05.17
Востаннє: 30.11.20
Повідомлень: 151

2020-09-12 16:10  
добре, чекатиму

Додано через 18 секунд:

5-й сезон робитемите?

Anonymous 







2020-09-12 17:16  
Dr.S написано:
5-й сезон робитемите?

Так, але, мабуть, вже завтра, бо ріпи щось повільно завантажуються.

Додано через 1 годину 2 хвилини 46 секунд:

Додав загублені субтитри.

Ваш часовий пояс: GMT + 2 Години

Нова тема   Відповісти