Грімм (Сезон 4) / Grimm (Season 4) (2014-2015) 720p Ukr/Eng | sub Eng

Нові коментарі

Нова тема   Відповісти
Автор Повідомлення
Anonymous 







2020-09-10 13:57  
Грімм (Сезон 4) / Grimm (Season 4) (2014-2015) 720p Ukr/Eng | sub Eng

Грімм (Сезон 4) / Grimm (Season 4) (2014-2015) 720p Ukr/Eng | sub Eng


Жанр: фентезі, драма, жахи
Країна: США



Кінокомпанія: GK Productions, Hazy Mills Productions, Universal Television
Режисер: Стівен Карпентер (Stephen Carpenter), Девід Грінволт (David Greenwalt), Джим Коуф (Jim Kouf)
Актори: Дейв Ґвінтолі (David Giuntoli), Расселл Горнсбі (Russell Hornsby), Сайлас Вейр Мітчелл (Silas Weir Mitchell), Бітсі Таллоч (Elizabeth Tulloch) та інші

Сюжет:
Молодий детектив Нік Беркхардт є спадкоємцем роду Грімм - мисливців за нечистю, яка живе у світі людей. Всі нащадки Гриммів володіють ключовою здатністю - вони можуть бачити справжню сутність злих тварюк, під якою б личиною вони не ховалися. Соратником Ніка стає перевихований "Різник" - перевертень Едді Монро, що допомагає йому пізнавати таїнства древньої міфології.


Тривалість: 1 серія: ~43 хв. (цілком серій: 22)
Перелік серій
01) Thanks for the Memories
02) Octopus Head
03) The Last Fight
04) Dyin' on a Prayer
05) Cry Luison
06) Highway of Tears
07) The Grimm Who Stole Christmas
08) Chupacabra
09) Wesenrein
10) Tribunal
11) Death Do Us Part
12) Maréchaussée
13) Trial by Fire
14) Bad Luck
15) Double Date
16) Heartbreaker
17) Hibernaculum
18) Mishipeshu
19) Iron Hans
20) You Don't Know Jack
21) Headache
22) Cry Havoc
Якість:
Відео:
кодек:
розмір кадру: 1280 x 720
бітрейт: ~6000 кб/с

Аудіо # 1:
мова: українська
переклад: багатоголосий закадровий
кодек: 2.0
бітрейт: 192 кб/с

Аудіо # 2:
мова: англійська
переклад: оригінал
кодек: 5.1
бітрейт: 448 кб/с

Джерело озвучення:


Субтитри:
мова: англійська
тип: програмні (м'які)
формат: *.srt
Info
General
Unique ID : 10552309277667906962100528338007732281 (0x7F04D03FBB65616510314574FD7B039)
Complete name : F:\Support\series\Grimm (Season 4) [, 720p, Ukr, Eng]\Grimm. s04e01. Thanks for the Memories.
Format :
Format version : Version 4
File size : 2.24 GiB
Duration : 42 min 58 s
Overall bit rate : 7 453 kb/s
Encoded date : UTC 2020-09-09 20:02:32
Writing application : v50.0.0 ('Awakenings') 64-bit
Writing library : libebml v1.4.0 + v1.6.2

Video
ID : 1
Format : AVC
Format/Info : Advanced Video Codec
Format profile : [email protected]
Format settings : CABAC / 9 Ref Frames
Format settings, CABAC : Yes
Format settings, Reference : 9 frames
Codec ID : V_MPEG4/ISO/AVC
Duration : 42 min 58 s
Bit rate : 6 810 kb/s
Width : 1 280 pixels
Height : 720 pixels
Display aspect ratio : 16:9
Frame rate mode : Constant
Frame rate : 23.976 (24000/1001) FPS
Color space : YUV
Chroma subsampling : 4:2:0
Bit depth : 8 bits
Scan type : Progressive
Bits/(Pixel*Frame) : 0.308
Stream size : 2.04 GiB (91%)
Writing library : core 148 r2597 e86f3a1
Encoding settings : cabac=1 / ref=9 / deblock=1:-3:-3 / analyse=0x3:0x133 / me=tesa / subme=10 / psy=1 / psy_rd=1.00:0.00 / mixed_ref=1 / me_range=32 / chroma_me=1 / trellis=2 / 8x8dct=1 / cqm=0 / deadzone=21,11 / fast_pskip=0 / chroma_qp_offset=-2 / threads=12 / lookahead_threads=2 / sliced_threads=0 / nr=0 / decimate=0 / interlaced=0 / bluray_compat=0 / constrained_intra=0 / bframes=8 / b_pyramid=2 / b_adapt=2 / b_bias=0 / direct=3 / weightb=1 / open_gop=0 / weightp=2 / keyint=250 / keyint_min=23 / scenecut=40 / intra_refresh=0 / rc=crf / mbtree=0 / crf=17.0 / qcomp=0.60 / qpmin=0 / qpmax=69 / qpstep=4 / ip_ratio=1.40 / pb_ratio=1.30 / aq=1:0.80
Language : English
Default : Yes
Forced : No

Audio #1
ID : 2
Format : AC-3
Format/Info : Audio Coding 3
Commercial name : Dolby Digital
Codec ID : A_AC3
Duration : 42 min 58 s
Bit rate mode : Constant
Bit rate : 192 kb/s
Channel(s) : 2 channels
Channel layout : L R
Sampling rate : 48.0 kHz
Frame rate : 31.250 FPS (1536 SPF)
Compression mode : Lossy
Stream size : 59.0 MiB (3%)
Title : Новий
Language : Ukrainian
Service kind : Complete Main
Default : Yes
Forced : No

Audio #2
ID : 3
Format : AC-3
Format/Info : Audio Coding 3
Commercial name : Dolby Digital
Codec ID : A_AC3
Duration : 42 min 58 s
Bit rate mode : Constant
Bit rate : 448 kb/s
Channel(s) : 6 channels
Channel layout : L R C LFE Ls Rs
Sampling rate : 48.0 kHz
Frame rate : 31.250 FPS (1536 SPF)
Compression mode : Lossy
Stream size : 138 MiB (6%)
Language : English
Service kind : Complete Main
Default : No
Forced : No

Text
ID : 4
Format : UTF-8
Codec ID : S_TEXT/UTF8
Codec ID/Info : UTF-8 Plain Text
Duration : 42 min 14 s
Bit rate : 85 b/s
Count of elements : 831
Stream size : 26.4 KiB (0%)
Language : English
Default : No
Forced : No

Menu
00:00:00.000 : en:00:00:00.000
00:05:03.386 : en:00:05:03.386
00:15:51.534 : en:00:15:51.534
00:33:56.618 : en:00:33:56.618
Скріншоти

Українську доріжку взято з релізу https://toloka.to/t114150

Джерело: &
Особиста оцінка: 0 - не дивився





Срібний реліз (на рейтинг впливає 50% завантаженого)
 Трекер:    Зареєстрований   

Завантажити / скачати серіал українською



відео для новачків



 Зареєстрований:   2020-09-10 13:57
 Розмір:   42.4 GB 
 Оцінка серіалу:   10/10 (Голосів: 3)
   
Ваш часовий пояс: GMT + 2 Години

Нова тема   Відповісти