Хижачка / Rogue (2020) 1080p Ukr/Eng | Sub Eng

Нові коментарі

Нова тема   Відповісти
Автор Повідомлення
Anonymous 







2020-09-10 10:39  


Хижачка / Rogue (2020) 1080p Ukr/Eng | Sub Eng



«Мисливець стане здобиччю»






Жанр: бойовик
Країна: Великобританія, ПАР











Кінокомпанія: Lionsgate, Mannequin Pictures
Режисер: М. Дж. Бассетт
Актори: Меган Фокс, Джессіка Саттон, Філіп Вінчестер, Калліопе Джейн Тейлор, Лі-Енн Лібенберг, Брендон Оре, Грег Крик, Адам Дікон, Тамер Барджаг, Сісанда Хенна


Сюжет:
Саманта очолює команду найманців, яка відправляється в Африку, щоб врятувати викрадену доньку місцевого губернатора. Але коли операція зривається, команда опиняється в самому серці африканської пустелі, а по слідах за ними йдуть не тільки викрадачі, а й розлючені хижаки.



Тривалість: 01:45:59
Якість: 1080p


Відео:
кодек:
розмір кадру: 1920x802
бітрейт: 13600 кб/с

Аудіо # 1:
мова: українська
переклад: професійний дубльований
кодек: 2.0
бітрейт: 192 кб/с

Аудіо # 2:
мова: англійська
переклад: оригінал
кодек: 5.1
бітрейт: 1536 кб/с

Субтитри: (Forced)
мова: українська
тип: програмні (м'які)
формат: *.srt

Субтитри: (Full)
мова: англійська
тип: програмні (м'які)
формат: *.srt

Info
Код:
General
Complete name                            : Rogue (2020) 1080p [Ukr, Eng] [Hurtom].
Format                                   :
Format version                           : Version 4
File size                                : 11.3 GiB
Duration                                 : 1 h 45 min
Overall bit rate                         : 15.3 Mb/s
Movie name                               : Хижачка / Rogue (2020)
Encoded date                             : UTC 2020-09-10 06:56:54
Writing application                      : v30.1.0 ('Forever And More') 64-bit
Writing library                          : libebml v1.3.6 + v1.4.9
Cover                                    : Yes
Attachments                              : cover.jpg

Video
ID                                       : 1
Format                                   : AVC
Format/Info                              : Advanced Video Codec
Format profile                           : [email protected]
Format settings                          : CABAC / 5 Ref Frames
Format settings, CABAC                   : Yes
Format settings, RefFrames               : 5 frames
Codec ID                                 : V_MPEG4/ISO/AVC
Duration                                 : 1 h 45 min
Bit rate                                 : 13.6 Mb/s
Width                                    : 1 920 pixels
Height                                   : 802 pixels
Display aspect ratio                     : 2.40:1
Frame rate mode                          : Constant
Frame rate                               : 23.976 (24000/1001) FPS
Color space                              : YUV
Chroma subsampling                       : 4:2:0
Bit depth                                : 8 bits
Scan type                                : Progressive
Bits/(Pixel*Frame)                       : 0.367
Stream size                              : 10.0 GiB (89%)
Title                                    : Хижачка / Rogue (2020)
Writing library                          : core 161 r3018 db0d417
Encoding settings                        : cabac=1 / ref=5 / deblock=1:-3:-3 / analyse=0x3:0x133 / me=umh / subme=11 / psy=1 / psy_rd=1.00:0.10 / mixed_ref=1 / me_range=32 / chroma_me=1 / trellis=2 / 8x8dct=1 / cqm=0 / deadzone=21,11 / fast_pskip=0 / chroma_qp_offset=-3 / threads=12 / lookahead_threads=1 / sliced_threads=0 / nr=0 / decimate=0 / interlaced=0 / bluray_compat=0 / constrained_intra=0 / bframes=10 / b_pyramid=2 / b_adapt=2 / b_bias=0 / direct=3 / weightb=1 / open_gop=0 / weightp=2 / keyint=240 / keyint_min=23 / scenecut=40 / intra_refresh=0 / rc=2pass / mbtree=0 / bitrate=13555 / ratetol=1.0 / qcomp=0.65 / qpmin=0 / qpmax=69 / qpstep=4 / cplxblur=20.0 / qblur=0.5 / ip_ratio=1.18 / pb_ratio=1.20 / aq=1:0.90
Language                                 : English
Default                                  : Yes
Forced                                   : No

Audio #1
ID                                       : 2
Format                                   : AC-3
Format/Info                              : Audio Coding 3
Commercial name                          : Dolby Digital
Codec ID                                 : A_AC3
Duration                                 : 1 h 45 min
Bit rate mode                            : Constant
Bit rate                                 : 192 kb/s
Channel(s)                               : 2 channels
Channel layout                           : L R
Sampling rate                            : 48.0 kHz
Frame rate                               : 31.250 FPS (1536 SPF)
Bit depth                                : 16 bits
Compression mode                         : Lossy
Stream size                              : 146 MiB (1%)
Title                                    : 2.0 | 192 | Line |
Language                                 : Ukrainian
Service kind                             : Complete Main
Default                                  : Yes
Forced                                   : No

Audio #2
ID                                       : 3
Format                                   :
Format/Info                              : Digital Theater Systems
Codec ID                                 : A_DTS
Duration                                 : 1 h 45 min
Bit rate mode                            : Constant
Bit rate                                 : 1 536 kb/s
Channel(s)                               : 6 channels
Channel layout                           : C L R Ls Rs LFE
Sampling rate                            : 48.0 kHz
Frame rate                               : 93.750 FPS (512 SPF)
Bit depth                                : 16 bits
Compression mode                         : Lossy
Stream size                              : 1.14 GiB (10%)
Title                                    : 5.1 | 1536
Language                                 : English
Default                                  : No
Forced                                   : No

Text #1
ID                                       : 4
Format                                   : UTF-8
Codec ID                                 : S_TEXT/UTF8
Codec ID/Info                            : UTF-8 Plain Text
Duration                                 : 1 h 33 min
Bit rate                                 : 2 b/s
Count of elements                        : 19
Stream size                              : 1.42 KiB (0%)
Title                                    : Forced
Language                                 : Ukrainian
Default                                  : Yes
Forced                                   : No

Text #2
ID                                       : 5
Format                                   : UTF-8
Codec ID                                 : S_TEXT/UTF8
Codec ID/Info                            : UTF-8 Plain Text
Duration                                 : 1 h 38 min
Bit rate                                 : 51 b/s
Count of elements                        : 1319
Stream size                              : 37.0 KiB (0%)
Title                                    : Full
Language                                 : English
Default                                  : No
Forced                                   : No

Скріншоти




Джерело: & eneyida.tv
Особиста оцінка: 0 - не дивився






 Трекер:    Зареєстрований   

Завантажити / скачати фільм українською



відео для новачків



 Зареєстрований:   2020-09-10 10:39
 Розмір:   11.31 GB 
 Оцінка фільму:   6.7/10 (Голосів: 6)
   
Інші релізи
   Хижачка / Rogue (2020) Remux 1080p Ukr/Eng | Sub Eng antik_2008  5 / 0   29.16 GB   2020-09-09 23:30 
   Хижачка / Rogue (2020) Ukr/Eng antik_2008  8 / 0   1.99 GB   2020-09-09 22:38 
   Хижачка / Rogue (2020) 720p Ukr/Eng | Sub Eng antik_2008  6 / 0   6.66 GB   2020-09-09 22:34 
   Хижачка / Rogue (2020) AVC Ukr/Eng | Sub Eng eneyida.tv  11 / 0   1.97 GB   2020-09-09 19:29 
lion822 
Поважний учасник


З нами з: 27.12.11
Востаннє: 01.10.20
Повідомлень: 192

2020-09-10 11:15  
за релiз + а сам фiльм така маячня .. рейтинг imdb правдивий
Ваш часовий пояс: GMT + 2 Години

Нова тема   Відповісти