Пригоди імператора / The Emperor's New Groove (2000) 1080p H.265 Ukr/Eng | Sub Eng/Fre/Spa

Нові коментарі

Нова тема   Відповісти
Автор Повідомлення
Anonymous 







2020-09-09 22:01  
Пригоди імператора / The Emperor's New Groove (2000) 1080p H.265 Ukr/Eng | Sub Eng/Fre/Spa

Пригоди імператора / The Emperor's New Groove (2000) 1080p H.265 Ukr/Eng | Sub Eng/Fre/Spa


Жанр: мультфільм, фентезі, комедія, пригодницький, сімейний
Країна: США
Кінокомпанія: Walt Disney Feature Animation, Walt Disney Pictures
Режисер: Марк Діндал / Mark Dindal
Ролі озвучили: Девід Спейд / David Spade, Джон Ґудмен / John Goodman, Ерта Кітт / Eartha Kitt, Патрік Bарбертон / Patrick Warburton, Венді Малік / Wendie Malick, Келліан Келсо / Kellyann Kelso, Стівен Джей. Андерсон / Stephen J. Anderson, Елі Рассел Лінец / Eli Russell Linnetz, Боб Берґен / Bob Bergen, Роджер Бампасс / Rodger Bumpass та інші

Сюжет:
Як і належить царственній особі, імператор Куско - дуже зайнята людина. Але останнє його заняття загрожує обернутися великими неприємностями: правитель вирішив побудувати для себе водний парк, попередньо знісши одне з сіл королівства. Цей план неодмінно б втілився в життя, якби неприємність не відбулася вже з самим імператором: недруги перетворили його на ламу! Але напасті на цьому не закінчилися: єдиною людиною, яка могла допомогти імператорові повернутися на трон і у власне тіло, виявляється житель села, приреченого на страту. Дорога додому для Куско обіцяє бути дуже довгою.

Тривалість: 01:18:23
Якість:

Відео:
кодек: H.265 (HEVC)
розмір кадру: 1816 x 1080
бітрейт: 4 352 кб/с
бітова глибина: 10 біт

Увага! Перед завантаженням переконайтесь, що ваш пристрій відтворення (та/або ПЗ) підтримує H.265 (HEVC)

Аудіо # 1:
мова: українська
переклад: професійний дубльований
кодек: AC-3 2.0
бітрейт: 192 кб/с

Аудіо # 2:
мова: англійська
переклад: оригінал
кодек: 5.1
бітрейт: 1510 кб/с

Субтитри # 1-2: (Full, SDH)
мова: англійська
тип: програмні (м'які)
формат: *.srt

Субтитри # 3: (Full)
мова: французька
тип: програмні (м'які)
формат: *.srt

Субтитри # 4: (Full)
мова: іспанська
тип: програмні (м'які)
формат: *.srt


Info
Код:
General
Unique ID                                : 41553116632352174591611472682441068848 (0x1F42D6D338BC7968A63295D01B5D5130)
Complete name                            : The Emperor's New Groove (2000) 1080p H.265 [UKR_ENG] [Hurtom].
Format                                   :
Format version                           : Version 4
File size                                : 3.32 GiB
Duration                                 : 1 h 18 min
Overall bit rate                         : 6 048 kb/s
Movie name                               : Пригоди імператора / The Emperor's New Groove (2000)
Encoded date                             : UTC 2020-09-09 07:58:59
Writing application                      : v20.0.0 ('I Am The Sun') 64-bit
Writing library                          : libebml v1.3.5 + v1.4.8
Cover                                    : Yes
Attachments                              : Cover.jpg

Video
ID                                       : 1
Format                                   : HEVC
Format/Info                              : High Efficiency Video Coding
Format profile                           : Main [email protected]@High
Codec ID                                 : V_MPEGH/ISO/HEVC
Duration                                 : 1 h 18 min
Bit rate                                 : 4 352 kb/s
Width                                    : 1 816 pixels
Height                                   : 1 080 pixels
Display aspect ratio                     : 5:3
Frame rate mode                          : Constant
Frame rate                               : 23.976 (23976/1000) FPS
Original frame rate                      : 23.976 (24000/1001) FPS
Color space                              : YUV
Chroma subsampling                       : 4:2:0
Bit depth                                : 10 bits
Bits/(Pixel*Frame)                       : 0.093
Stream size                              : 2.38 GiB (72%)
Title                                    : Пригоди імператора / The Emperor's New Groove (2000)
Writing library                          : x265 3.3+1-g554c887ac:[Windows][MSVC 1924][64 bit] 10bit
Encoding settings                        : cpuid=1111039 / frame-threads=3 / numa-pools=12 / wpp / no-pmode / no-pme / no-psnr / no-ssim / log-level=2 / input-csp=1 / input-res=1816x1080 / interlace=0 / total-frames=112782 / level-idc=41 / high-tier=1 / uhd-bd=0 / ref=5 / no-allow-non-conformance / no-repeat-headers / annexb / no-aud / no-hrd / info / hash=0 / no-temporal-layers / open-gop / min-keyint=23 / keyint=240 / gop-lookahead=0 / bframes=16 / b-adapt=2 / b-pyramid / bframe-bias=0 / rc-lookahead=60 / lookahead-slices=4 / scenecut=40 / hist-scenecut=0 / radl=0 / no-splice / no-intra-refresh / ctu=32 / min-cu-size=8 / rect / amp / max-tu-size=32 / tu-inter-depth=4 / tu-intra-depth=4 / limit-tu=1 / rdoq-level=2 / dynamic-rd=0.00 / no-ssim-rd / signhide / no-tskip / nr-intra=0 / nr-inter=0 / no-constrained-intra / no-strong-intra-smoothing / max-merge=4 / limit-refs=2 / limit-modes / me=3 / subme=7 / merange=57 / temporal-mvp / no-frame-dup / no-hme / weightp / weightb / no-analyze-src-pics / deblock=-3:-3 / no-sao / no-sao-non-deblock / rd=6 / selective-sao=0 / no-early-skip / no-rskip / no-fast-intra / no-tskip-fast / no-cu-lossless / no-b-intra / no-splitrd-skip / rdpenalty=0 / psy-rd=2.00 / psy-rdoq=1.00 / no-rd-refine / no-lossless / cbqpoffs=0 / crqpoffs=0 / rc=crf / crf=20.0 / qcomp=0.65 / qpstep=4 / stats-write=0 / stats-read=0 / vbv-maxrate=50000 / vbv-bufsize=50000 / vbv-init=0.9 / crf-max=0.0 / crf-min=0.0 / ipratio=1.40 / pbratio=1.30 / aq-mode=1 / aq-strength=1.00 / no-cutree / zone-count=0 / no-strict-cbr / qg-size=32 / no-rc-grain / qpmax=69 / qpmin=0 / no-const-vbv / sar=1 / overscan=0 / videoformat=5 / range=0 / colorprim=1 / transfer=1 / colormatrix=1 / chromaloc=0 / display-window=0 / cll=0,0 / min-luma=0 / max-luma=1023 / log2-max-poc-lsb=8 / vui-timing-info / vui-hrd-info / slices=1 / no-opt-qp-pps / no-opt-ref-list-length-pps / no-multi-pass-opt-rps / scenecut-bias=0.05 / hist-threshold=0.01 / no-opt-cu-delta-qp / no-aq-motion / no-hdr10 / no-hdr10-opt / no-dhdr10-opt / no-idr-recovery-sei / analysis-reuse-level=0 / analysis-save-reuse-level=0 / analysis-load-reuse-level=0 / scale-factor=0 / refine-intra=0 / refine-inter=0 / refine-mv=1 / refine-ctu-distortion=0 / no-limit-sao / ctu-info=0 / no-lowpass-dct / refine-analysis-type=0 / copy-pic=1 / max-ausize-factor=1.0 / no-dynamic-refine / no-single-sei / no-hevc-aq / no-svt / no-field / qp-adaptation-range=1.00 / no-scenecut-aware-qpconformance-window-offsets / right=0 / bottom=0
Default                                  : Yes
Forced                                   : No
Color range                              : Limited
Color primaries                          : BT.709
Transfer characteristics                 : BT.709
Matrix coefficients                      : BT.709

Audio #1
ID                                       : 2
Format                                   : AC-3
Format/Info                              : Audio Coding 3
Commercial name                          : Dolby Digital
Codec ID                                 : A_AC3
Duration                                 : 1 h 18 min
Bit rate mode                            : Constant
Bit rate                                 : 192 kb/s
Channel(s)                               : 2 channels
Channel layout                           : L R
Sampling rate                            : 48.0 kHz
Frame rate                               : 31.250 FPS (1536 SPF)
Compression mode                         : Lossy
Stream size                              : 108 MiB (3%)
Title                                    : / 2.0 Ch / 192 kbps / DUB / iTunes
Language                                 : Ukrainian
Service kind                             : Complete Main
Default                                  : Yes
Forced                                   : Yes

Audio #2
ID                                       : 3
Format                                   :
Format/Info                              : Digital Theater Systems
Codec ID                                 : A_DTS
Duration                                 : 1 h 18 min
Bit rate mode                            : Constant
Bit rate                                 : 1 509 kb/s
Channel(s)                               : 6 channels
Channel layout                           : C L R Ls Rs LFE
Sampling rate                            : 48.0 kHz
Frame rate                               : 93.750 FPS (512 SPF)
Bit depth                                : 24 bits
Compression mode                         : Lossy
Stream size                              : 848 MiB (25%)
Title                                    : / 5.1 Ch / 1509 kbps / Original
Language                                 : English
Default                                  : No
Forced                                   : No

Text #1
ID                                       : 4
Format                                   : UTF-8
Codec ID                                 : S_TEXT/UTF8
Codec ID/Info                            : UTF-8 Plain Text
Duration                                 : 1 h 11 min
Bit rate                                 : 71 b/s
Count of elements                        : 1207
Stream size                              : 37.5 KiB (0%)
Title                                    : Full
Language                                 : English
Default                                  : No
Forced                                   : No

Text #2
ID                                       : 5
Format                                   : UTF-8
Codec ID                                 : S_TEXT/UTF8
Codec ID/Info                            : UTF-8 Plain Text
Duration                                 : 1 h 16 min
Bit rate                                 : 79 b/s
Count of elements                        : 1565
Stream size                              : 44.6 KiB (0%)
Title                                    : SDH
Language                                 : English
Default                                  : No
Forced                                   : No

Text #3
ID                                       : 6
Format                                   : UTF-8
Codec ID                                 : S_TEXT/UTF8
Codec ID/Info                            : UTF-8 Plain Text
Duration                                 : 1 h 12 min
Bit rate                                 : 70 b/s
Count of elements                        : 1207
Stream size                              : 37.2 KiB (0%)
Title                                    : Full
Language                                 : French
Default                                  : No
Forced                                   : No

Text #4
ID                                       : 7
Format                                   : UTF-8
Codec ID                                 : S_TEXT/UTF8
Codec ID/Info                            : UTF-8 Plain Text
Duration                                 : 1 h 16 min
Bit rate                                 : 70 b/s
Count of elements                        : 1066
Stream size                              : 39.2 KiB (0%)
Title                                    : Full
Language                                 : Spanish
Default                                  : No
Forced                                   : No

Menu
00:00:00.000                             : en:"The Name Is Kuzco"
00:01:24.250                             : en:Main Title ("Perfect World")
00:03:57.320                             : en:Choosing a Bride
00:04:27.517                             : en:Pacha Arrives at the Palace
00:05:29.495                             : en:The Emperor's Advisor
00:08:08.488                             : en:Kuzcotopia
00:10:36.135                             : en:Yzma's Revenge
00:11:30.439                             : en:"To the Secret Lab!"
00:12:50.644                             : en:A Diabolical Dinner
00:17:10.029                             : en:Finishing the Job
00:20:11.418                             : en:Pacha Returns Home
00:23:28.490                             : en:Demon Llama!
00:27:06.958                             : en:Into the Jungle
00:29:12.667                             : en:Pacha to the Rescue
00:34:02.957                             : en:The Transition of Power
00:35:49.522                             : en:Bad Dreams
00:36:30.313                             : en:An Apparent Change of Heart
00:38:23.134                             : en:Battle at the Bridge
00:43:54.381                             : en:In Hot Pursuit
00:46:32.331                             : en:Mudka's Meal Hut
00:53:05.557                             : en:A Llama Alone
00:54:08.912                             : en:Good News
00:55:06.303                             : en:Friends, Finally
00:57:25.191                             : en:Playtime at Pacha's
01:00:41.554                             : en:The Chase
01:01:44.534                             : en:The Final Showdown
01:09:54.899                             : en:A Whole New Groove
01:12:16.832                             : en:End Credits ("My Funy Friend and Me")
Світлини




Джерело: &
Особиста оцінка: 0 - не дивився


Срібний реліз (на рейтинг впливає 50% завантаженого)
 Трекер:    Зареєстрований   

Завантажити / скачати мультфільм українською



відео для новачків



 Зареєстрований:   2020-09-09 22:01
 Розмір:   3.32 GB 
 Оцінка мультфільму:   9.9/10 (Голосів: 7)
   
bot 
робот


З нами з: 30.09.07
Востаннє: 26.05.05
Повідомлень: 27320

2020-09-09 22:02  
Тему перенесено з Фільми в HD до форуму Мультфільми в HD


-Star-Lord-

Ваш часовий пояс: GMT + 2 Години

Нова тема   Відповісти