Нові пригоди імператора 2 / Kronk's New Groove (2005) 1080p H.265 Ukr/Eng | Sub Eng/Fre/Spa

Нові коментарі

Нова тема   Відповісти
Автор Повідомлення
Anonymous 







2020-09-09 22:01  
Нові пригоди імператора 2 / Kronk's New Groove (2005) 1080p H.265 Ukr/Eng | Sub Eng/Fre/Spa

Нові пригоди імператора 2 / Kronk's New Groove (2005) 1080p H.265 Ukr/Eng | Sub Eng/Fre/Spa


Жанр: казка, дитячий, анімація
Країна: США
Кінокомпанія: DisneyToon Studios, Walt Disney Pictures
Режисер: Сауль Ендрю Блінкофф
Ролі озвучують: Патрік Варбертон, Трейсі Уллмен, Ерта Кітт, Девід Спейд, Джон Гудман, Уенді Мелік, Джон Махоні, Джон Фідлер, Джефф Беннетт, Боб Берген

Сюжет:
Не встигли закінчитися пригоди Пачі і Імператора Куско, як симпатяга Кронк, колишній слуга Ізми, почав нове щасливе життя шеф-кухаря в своїй власній закусочній. Однак пригоди починаються з отриманням лама-грами, згідно з якою, його батько збирається прибути з візитом. Але Кронк примудряється потрапити у безліч неприємностей, зв'язавшись з хитрою чаклункою Ізмою, щоб за допомогою чарівництва освітити себе ореолом успіху і процвітання під час візиту батька. Після цілого ряду помилок і грандіозного сирного вибуху в ресторані, проблеми здаються нерозв'язними. Але за допомогою друзів - як нових, так і старих - Кронк дізнається, що будь-які труднощі в житті переборні.

Тривалість: 01:14:54
Якість:

Відео:
кодек: H.265 (HEVC)
розмір кадру: 1920 x 1080
бітрейт: 5 605 кб/с
бітова глибина: 10 біт

Увага! Перед завантаженням переконайтесь, що ваш пристрій відтворення (та/або ПЗ) підтримує H.265 (HEVC)

Аудіо # 1:
мова: українська
переклад: багатоголосий закадровий
кодек: AC-3 2.0
бітрейт: 192 кб/с

Аудіо # 2:
мова: англійська
переклад: оригінал
кодек: 5.1
бітрейт: 1510 кб/с

Субтитри # 1-2: (Full, SDH)
мова: англійська
тип: програмні (м'які)
формат: *.srt

Субтитри # 3: (Full)
мова: французька
тип: програмні (м'які)
формат: *.srt

Субтитри # 4: (Full)
мова: іспанська
тип: програмні (м'які)
формат: *.srt


Info
Код:
General
Unique ID                                : 50955390485805643250885628983181781668 (0x2655A6B76EAF6E2FFECFC33821DF2AA4)
Complete name                            : Kronk's New Groove (2005) 1080p H.265 [UKR_ENG] [Hurtom].
Format                                   :
Format version                           : Version 4
File size                                : 3.83 GiB
Duration                                 : 1 h 15 min
Overall bit rate                         : 7 302 kb/s
Movie name                               : Нові пригоди імператора 2 / Kronk's New Groove (2005)
Encoded date                             : UTC 2020-09-09 19:30:26
Writing application                      : v20.0.0 ('I Am The Sun') 64-bit
Writing library                          : libebml v1.3.5 + v1.4.8
Cover                                    : Yes
Attachments                              : Cover.jpg

Video
ID                                       : 1
Format                                   : HEVC
Format/Info                              : High Efficiency Video Coding
Format profile                           : Main [email protected]@High
Codec ID                                 : V_MPEGH/ISO/HEVC
Duration                                 : 1 h 14 min
Bit rate                                 : 5 605 kb/s
Width                                    : 1 920 pixels
Height                                   : 1 080 pixels
Display aspect ratio                     : 16:9
Frame rate mode                          : Constant
Frame rate                               : 23.976 (23976/1000) FPS
Original frame rate                      : 23.976 (24000/1001) FPS
Color space                              : YUV
Chroma subsampling                       : 4:2:0
Bit depth                                : 10 bits
Bits/(Pixel*Frame)                       : 0.113
Stream size                              : 2.93 GiB (77%)
Title                                    : Нові пригоди імператора 2 / Kronk's New Groove (2005)
Writing library                          : x265 3.3+1-g554c887ac:[Windows][MSVC 1924][64 bit] 10bit
Encoding settings                        : cpuid=1111039 / frame-threads=3 / numa-pools=12 / wpp / no-pmode / no-pme / no-psnr / no-ssim / log-level=2 / input-csp=1 / input-res=1920x1080 / interlace=0 / total-frames=97288 / level-idc=41 / high-tier=1 / uhd-bd=0 / ref=5 / no-allow-non-conformance / no-repeat-headers / annexb / no-aud / no-hrd / info / hash=0 / no-temporal-layers / open-gop / min-keyint=23 / keyint=240 / gop-lookahead=0 / bframes=10 / b-adapt=2 / b-pyramid / bframe-bias=0 / rc-lookahead=60 / lookahead-slices=4 / scenecut=40 / hist-scenecut=0 / radl=0 / no-splice / no-intra-refresh / ctu=32 / min-cu-size=8 / rect / amp / max-tu-size=32 / tu-inter-depth=4 / tu-intra-depth=4 / limit-tu=1 / rdoq-level=2 / dynamic-rd=0.00 / no-ssim-rd / signhide / no-tskip / nr-intra=0 / nr-inter=0 / no-constrained-intra / no-strong-intra-smoothing / max-merge=4 / limit-refs=2 / limit-modes / me=3 / subme=7 / merange=57 / temporal-mvp / no-frame-dup / no-hme / weightp / weightb / no-analyze-src-pics / deblock=-3:-3 / no-sao / no-sao-non-deblock / rd=6 / selective-sao=0 / no-early-skip / no-rskip / no-fast-intra / no-tskip-fast / no-cu-lossless / no-b-intra / no-splitrd-skip / rdpenalty=0 / psy-rd=2.00 / psy-rdoq=1.00 / no-rd-refine / no-lossless / cbqpoffs=0 / crqpoffs=0 / rc=crf / crf=20.0 / qcomp=0.65 / qpstep=4 / stats-write=0 / stats-read=0 / vbv-maxrate=50000 / vbv-bufsize=50000 / vbv-init=0.9 / crf-max=0.0 / crf-min=0.0 / ipratio=1.40 / pbratio=1.30 / aq-mode=1 / aq-strength=1.00 / no-cutree / zone-count=0 / no-strict-cbr / qg-size=32 / no-rc-grain / qpmax=69 / qpmin=0 / no-const-vbv / sar=1 / overscan=0 / videoformat=5 / range=0 / colorprim=1 / transfer=1 / colormatrix=1 / chromaloc=0 / display-window=0 / cll=0,0 / min-luma=0 / max-luma=1023 / log2-max-poc-lsb=8 / vui-timing-info / vui-hrd-info / slices=1 / no-opt-qp-pps / no-opt-ref-list-length-pps / no-multi-pass-opt-rps / scenecut-bias=0.05 / hist-threshold=0.01 / no-opt-cu-delta-qp / no-aq-motion / no-hdr10 / no-hdr10-opt / no-dhdr10-opt / no-idr-recovery-sei / analysis-reuse-level=0 / analysis-save-reuse-level=0 / analysis-load-reuse-level=0 / scale-factor=0 / refine-intra=0 / refine-inter=0 / refine-mv=1 / refine-ctu-distortion=0 / no-limit-sao / ctu-info=0 / no-lowpass-dct / refine-analysis-type=0 / copy-pic=1 / max-ausize-factor=1.0 / no-dynamic-refine / no-single-sei / no-hevc-aq / no-svt / no-field / qp-adaptation-range=1.00 / no-scenecut-aware-qpconformance-window-offsets / right=0 / bottom=0
Default                                  : Yes
Forced                                   : No
Color range                              : Limited
Color primaries                          : BT.709
Transfer characteristics                 : BT.709
Matrix coefficients                      : BT.709

Audio #1
ID                                       : 2
Format                                   : AC-3
Format/Info                              : Audio Coding 3
Commercial name                          : Dolby Digital
Codec ID                                 : A_AC3
Duration                                 : 1 h 14 min
Bit rate mode                            : Constant
Bit rate                                 : 192 kb/s
Channel(s)                               : 2 channels
Channel layout                           : L R
Sampling rate                            : 48.0 kHz
Frame rate                               : 31.250 FPS (1536 SPF)
Compression mode                         : Lossy
Stream size                              : 103 MiB (3%)
Title                                    : / 2.0 Ch / 192 kbps / MVO / TET
Language                                 : Ukrainian
Service kind                             : Complete Main
Default                                  : Yes
Forced                                   : Yes

Audio #2
ID                                       : 3
Format                                   :
Format/Info                              : Digital Theater Systems
Codec ID                                 : A_DTS
Duration                                 : 1 h 15 min
Bit rate mode                            : Constant
Bit rate                                 : 1 509 kb/s
Channel(s)                               : 6 channels
Channel layout                           : C L R Ls Rs LFE
Sampling rate                            : 48.0 kHz
Frame rate                               : 93.750 FPS (512 SPF)
Bit depth                                : 24 bits
Compression mode                         : Lossy
Stream size                              : 810 MiB (21%)
Title                                    : / 5.1 Ch / 1509 kbps / Original
Language                                 : English
Default                                  : No
Forced                                   : No

Text #1
ID                                       : 4
Format                                   : UTF-8
Codec ID                                 : S_TEXT/UTF8
Codec ID/Info                            : UTF-8 Plain Text
Duration                                 : 1 h 6 min
Bit rate                                 : 69 b/s
Count of elements                        : 1077
Stream size                              : 34.3 KiB (0%)
Title                                    : Full
Language                                 : English
Default                                  : No
Forced                                   : No

Text #2
ID                                       : 5
Format                                   : UTF-8
Codec ID                                 : S_TEXT/UTF8
Codec ID/Info                            : UTF-8 Plain Text
Duration                                 : 1 h 10 min
Bit rate                                 : 73 b/s
Count of elements                        : 1236
Stream size                              : 37.9 KiB (0%)
Title                                    : SDH
Language                                 : English
Default                                  : No
Forced                                   : No

Text #3
ID                                       : 6
Format                                   : UTF-8
Codec ID                                 : S_TEXT/UTF8
Codec ID/Info                            : UTF-8 Plain Text
Duration                                 : 1 h 7 min
Bit rate                                 : 76 b/s
Count of elements                        : 1093
Stream size                              : 37.6 KiB (0%)
Title                                    : Full
Language                                 : French
Default                                  : No
Forced                                   : No

Text #4
ID                                       : 7
Format                                   : UTF-8
Codec ID                                 : S_TEXT/UTF8
Codec ID/Info                            : UTF-8 Plain Text
Duration                                 : 1 h 13 min
Bit rate                                 : 68 b/s
Count of elements                        : 1122
Stream size                              : 36.9 KiB (0%)
Title                                    : Full
Language                                 : Spanish
Default                                  : No
Forced                                   : No

Menu
00:00:00.000                             : en:Now You're Cooking
00:05:40.798                             : en:Papi's Coming
00:07:55.725                             : en:Kid Kronk
00:09:27.066                             : en:Lunch Is Served
00:12:36.005                             : en:Yzma's Offer
00:17:00.978                             : en:The Youth Potion
00:20:21.970                             : en:Kronk's New House
00:24:55.410                             : en:The Truth Revealed
00:28:34.754                             : en:Righting Wrong
00:30:59.691                             : en:Camp Chippamunka
00:34:04.709                             : en:Birdwell
00:39:20.358                             : en:Raisin' Bread
00:43:41.869                             : en:Kitchen Heat
00:49:21.833                             : en:The Final Event
00:55:05.010                             : en:Papi Arrives
00:57:28.653                             : en:Mistaken Identities
01:02:39.005                             : en:The Truth Explodes
01:02:52.727                             : en:Kronk Explains
01:05:37.683                             : en:Papi's Thumbs Up
01:07:38.054                             : en:End Credits
Світлини




Джерело: &
Особиста оцінка: 0 - не дивився


 Трекер:    Зареєстрований   

Завантажити / скачати мультфільм українською



відео для новачків



 Зареєстрований:   2020-09-09 22:01
 Розмір:   3.83 GB 
 Оцінка мультфільму:   10/10 (Голосів: 3)
   
Інші релізи
Ваш часовий пояс: GMT + 2 Години

Нова тема   Відповісти