Фільм Арнольд / Hey Arnold! the Movie (2002) 1080p Ukr/Eng| Sub Eng

Нові коментарі

Нова тема   Відповісти
Автор Повідомлення
xslim 
Відео Гуртом - фільмокрай
Відео Гуртом - фільмокрай


З нами з: 04.03.09
Востаннє: 25.02.21
Повідомлень: 1411

2020-09-09 21:37  
Фільм Арнольд / Hey Arnold! the Movie (2002) 1080p Ukr/Eng| Sub Eng



Жанр: анімація, пригодницький, дитячий, сімейний
Країна: США



Кіностудія / кінокомпанія: Paramount Pictures, Nickelodeon Movies
Режисер: Tuck Tucker / Так Таккер
Ролі озвучують: Дженніфер Джейсон Лі, Пол Сорвіно, Крістофер Ллойд

Сюжет:
Герой знаменитої мультиплікаційної серії Nickelodeon вдало застрибнув на великий екран в цьому сміховинному повнометражному суперхіті для всієї родини!
У безжального магната народився злочинний план: знести квартал, де проживає наш герой Арнольд, і збудувати на його місці величезний супермаркет. Час пішов, і комусь доведеться встати на захист затишного рідного куточка. Захисником сусідського оазису стане доблесний Арнольд. З хвостатої занудою Хельгою, таємно закоханої у героя, і з кращим другом Джеральдом, Арнольд починає війну за рідні пенати!


Тривалість: 01:15:47
Якість: 1080p AMZN
Відео:
кодек:
розмір кадру: 1920 x 1080
бітрейт: 11.1 мб/с

Аудіо # 1:
мова: українська
переклад: багатоголосий закадровий | К1
кодек: 2.0
бітрейт: 192 кб/с

Аудіо # 2:
мова: англійська
переклад: оригінал
кодек: E- 5.1
бітрейт: 640 кб/с

Субтитри:
мова: англійська
тип: програмні (м'які)
формат: *.srt
Info
General
Unique ID : 311816513392587043306712219386563048654 (0xEA95AD1048A582150D52539A57A4B4CE)
Complete name : D:\2020\Hey Arnold The Movie (2002) AMZN [Ukr,Eng] 1080p.
Format :
Format version : Version 4
File size : 6.32 GiB
Duration : 1 h 15 min
Overall bit rate mode : Variable
Overall bit rate : 11.9 Mb/s
Encoded date : UTC 2020-09-09 17:24:55
Writing application : v50.0.0 ('Awakenings') 64-bit
Writing library : libebml v1.4.0 + v1.6.2

Video
ID : 1
Format : AVC
Format/Info : Advanced Video Codec
Format profile : [email protected]
Format settings : CABAC / 4 Ref Frames
Format settings, CABAC : Yes
Format settings, Reference fra : 4 frames
Codec ID : V_MPEG4/ISO/AVC
Duration : 1 h 15 min
Bit rate mode : Variable
Bit rate : 11.1 Mb/s
Maximum bit rate : 15.0 Mb/s
Width : 1 920 pixels
Height : 1 080 pixels
Display aspect ratio : 16:9
Frame rate mode : Constant
Frame rate : 23.976 (24000/1001) FPS
Color space : YUV
Chroma subsampling : 4:2:0
Bit depth : 8 bits
Scan type : Progressive
Bits/(Pixel*Frame) : 0.223
Stream size : 5.88 GiB (93%)
Writing library : core 148 r2623 d5b2374
Encoding settings : cabac=1 / ref=4 / deblock=1:-1:-1 / analyse=0x3:0x133 / me=umh / subme=9 / psy=1 / psy_rd=1.00:0.15 / mixed_ref=1 / me_range=24 / chroma_me=1 / trellis=2 / 8x8dct=1 / cqm=0 / deadzone=21,11 / fast_pskip=1 / chroma_qp_offset=-3 / threads=34 / lookahead_threads=5 / sliced_threads=0 / nr=150 / decimate=1 / interlaced=0 / bluray_compat=0 / constrained_intra=0 / bframes=8 / b_pyramid=2 / b_adapt=2 / b_bias=0 / direct=3 / weightb=1 / open_gop=0 / weightp=2 / keyint=120 / keyint_min=61 / scenecut=0 / intra_refresh=0 / rc_lookahead=120 / rc=crf / mbtree=1 / crf=18.0 / qcomp=0.60 / qpmin=0 / qpmax=69 / qpstep=4 / vbv_maxrate=15000 / vbv_bufsize=31250 / crf_max=0.0 / nal_hrd=vbr / filler=0 / ip_ratio=1.40 / aq=3:1.00
Language : English
Default : Yes
Forced : No
Color range : Limited
Color primaries : BT.709
Transfer characteristics : BT.709
Matrix coefficients : BT.709

Audio #1
ID : 2
Format : AC-3
Format/Info : Audio Coding 3
Commercial name : Dolby Digital
Codec ID : A_AC3
Duration : 1 h 15 min
Bit rate mode : Constant
Bit rate : 192 kb/s
Channel(s) : 2 channels
Channel layout : L R
Sampling rate : 48.0 kHz
Frame rate : 31.250 FPS (1536 SPF)
Compression mode : Lossy
Stream size : 104 MiB (2%)
Title : K1
Language : Ukrainian
Service kind : Complete Main
Default : Yes
Forced : Yes

Audio #2
ID : 3
Format : E-AC-3
Format/Info : Enhanced AC-3
Commercial name : Dolby Digital Plus
Codec ID : A_EAC3
Duration : 1 h 15 min
Bit rate mode : Constant
Bit rate : 640 kb/s
Channel(s) : 6 channels
Channel layout : L R C LFE Ls Rs
Sampling rate : 48.0 kHz
Frame rate : 31.250 FPS (1536 SPF)
Compression mode : Lossy
Stream size : 347 MiB (5%)
Language : English
Service kind : Complete Main
Default : No
Forced : No

Text #1
ID : 4
Format : UTF-8
Codec ID : S_TEXT/UTF8
Codec ID/Info : UTF-8 Plain Text
Duration : 1 h 13 min
Bit rate : 90 b/s
Count of elements : 1138
Stream size : 48.9 KiB (0%)
Language : English
Default : No
Forced : No

Text #2
ID : 5
Format : UTF-8
Codec ID : S_TEXT/UTF8
Codec ID/Info : UTF-8 Plain Text
Duration : 1 h 14 min
Bit rate : 97 b/s
Count of elements : 1219
Stream size : 53.0 KiB (0%)
Title : SDH
Language : English
Default : No
Forced : No

Menu
00:00:00.000 : en:Studio Logos
00:00:34.000 : en:Arnold and Gerald argue about their game, Opening Credits
00:02:47.000 : en:Arnold encourages his neighbors to fight Scheck
00:05:24.000 : en:Helga obsesses over Arnold
00:06:40.000 : en:Helga's father tells her about his dream project
00:08:36.000 : en:Arnold's grandpa tries to cheer him up
00:10:01.000 : en:Arnold and his friends think of a way to stop Scheck
00:12:14.000 : en:Arnold and his friends set their plans into motion
00:15:12.000 : en:Arnold hears his friends and neighbors memories of the neighborhood
00:17:51.000 : en:Arnold thinks of a plan to save the neighborhood
00:21:33.000 : en:Arnold convinces Gerald to help him with his plan
00:24:11.000 : en:Mr. Bailey helps the boys search for a historical document
00:26:35.000 : en:The coroner tells Arnold and Gerald the location of the document
00:28:39.000 : en:Gerald and Arnold try to get the historical document from Scheck
00:32:28.000 : en:Arnold explains his strategy to save the neighborhood
00:35:01.000 : en:Bridget shows her equipment to Arnold and Gerald
00:37:07.000 : en:Helga secretly appreciates Arnold's bravery
00:38:37.000 : en:Arnold and Gerald learn about the key
00:40:02.000 : en:Grandpa makes a plan with his friends to help Arnold
00:42:11.000 : en:Arnold and Gerald try to get the key from Nick
00:45:54.000 : en:Arnold and Gerald get inside the building as Grandma tries to sneak out
00:48:17.000 : en:Big Bob fights with Nick for double crossing him
00:50:41.000 : en:Scheck and his guards try to catch Arnold and Gerald
00:53:35.000 : en:Arnold gets proof of Scheck's document destruction on tape
00:55:51.000 : en:Helga confesses her feelings to Arnold
00:58:40.000 : en:Gerald and Arnold try to convince Murray to drive faster
01:00:27.000 : en:Scheck and Nick try to stop Arnold and Gerald
01:03:51.000 : en:Gerald drives the bus while Grandma tries to stop the bulldozers
01:06:20.000 : en:Arnold and Gerald get into an accident
01:10:00.000 : en:Helga tries to cover up her feelings
01:11:37.000 : en:End Credits





Особиста оцінка: 10 - без зайвих вагань рекомендую всім!
Запис та синхронізація: xSlim


Срібний реліз (на рейтинг впливає 50% завантаженого)
 Трекер:    Зареєстрований   

Завантажити / скачати мультфільм українською



відео для новачків



 Зареєстрований:   2020-09-09 21:37
 Розмір:   6.32 GB 
 Оцінка мультфільму:   9.9/10 (Голосів: 9)
   
Інші релізи
   Фільм Арнольд / Hey Arnold! the Movie (2002) Ukr/Eng xslim  6 / 0   1.46 GB   2020-09-25 13:35 
hetzendorf 
Забанено
Забанено


З нами з: 23.07.15
Востаннє: 05.01.21
Повідомлень: 2966

2020-09-12 00:37  

xslim 
Відео Гуртом - фільмокрай
Відео Гуртом - фільмокрай


З нами з: 04.03.09
Востаннє: 25.02.21
Повідомлень: 1411

2020-09-16 13:17  
Мультфільм можна завантажити також і тут - https://drive.google.com/file/d/1A0wqfyw1iMdmuqcYcInhT_JIiPYtrJ8m
Ваш часовий пояс: GMT + 2 Години

Нова тема   Відповісти