Хижачка / Rogue (2020) 720p Ukr/Eng | Sub Eng

Нові коментарі

Нова тема   Відповісти
Автор Повідомлення
Anonymous 







2020-09-09 22:34  


Хижачка / Rogue (2020) 720p Ukr/Eng | Sub Eng



«Мисливець стане здобиччю»






Жанр: бойовик
Країна: Велика Британія, ПАР











Кінокомпанія: Lionsgate, Mannequin Pictures
Режисер: М. Дж. Бассетт
Актори: Меган Фокс, Джессіка Саттон, Філіп Вінчестер, Калліопе Джейн Тейлор, Лі-Енн Лібенберг, Брендон Оре, Грег Крик, Адам Дікон, Тамер Барджаг, Сісанда Хенна


Сюжет:
Саманта очолює команду найманців, яка відправляється в Африку, щоб врятувати викрадену доньку місцевого губернатора. Але коли операція зривається, команда опиняється в самому серці африканської пустелі, а по слідах за ними йдуть не тільки викрадачі, а й розлючені хижаки.



Тривалість: 01:45:59
Якість: 720p


Відео:
кодек:
розмір кадру: 1280x534
бітрейт: 8162 кб/с

Аудіо # 1:
мова: українська
переклад: професійний дубльований
кодек: 2.0
бітрейт: 192 кб/с

Аудіо # 2:
мова: англійська
переклад: оригінал
кодек: 5.1
бітрейт: 640 кб/с

Субтитри: (Forced)
мова: українська
тип: програмні (м'які)
формат: *.srt

Субтитри:
мова: англійська
тип: програмні (м'які)
формат: *.srt

Info
Код:
General
Complete name                            : Rogue (2020) 720p [ukr, eng] [Hurtom].
Format                                   :
Format version                           : Version 4
File size                                : 6.66 GiB
Duration                                 : 1 h 45 min
Overall bit rate                         : 8 998 kb/s
Movie name                               : Хижачка / Rogue (2020)
Encoded date                             : UTC 2020-09-09 16:21:00
Writing application                      : v30.1.0 ('Forever And More') 64-bit
Writing library                          : libebml v1.3.6 + v1.4.9
Cover                                    : Yes
Attachments                              : cover.jpg

Video
ID                                       : 1
Format                                   : AVC
Format/Info                              : Advanced Video Codec
Format profile                           : [email protected]
Format settings                          : CABAC / 8 Ref Frames
Format settings, CABAC                   : Yes
Format settings, RefFrames               : 8 frames
Codec ID                                 : V_MPEG4/ISO/AVC
Duration                                 : 1 h 45 min
Bit rate                                 : 8 162 kb/s
Width                                    : 1 280 pixels
Height                                   : 534 pixels
Display aspect ratio                     : 2.40:1
Frame rate mode                          : Constant
Frame rate                               : 23.976 (24000/1001) FPS
Color space                              : YUV
Chroma subsampling                       : 4:2:0
Bit depth                                : 8 bits
Scan type                                : Progressive
Bits/(Pixel*Frame)                       : 0.498
Stream size                              : 6.04 GiB (91%)
Writing library                          : core 161 r3018 db0d417
Encoding settings                        : cabac=1 / ref=8 / deblock=1:-3:-3 / analyse=0x3:0x133 / me=umh / subme=9 / psy=1 / psy_rd=1.00:0.00 / mixed_ref=1 / me_range=24 / chroma_me=1 / trellis=2 / 8x8dct=1 / cqm=0 / deadzone=21,11 / fast_pskip=0 / chroma_qp_offset=-2 / threads=17 / lookahead_threads=2 / sliced_threads=0 / nr=0 / decimate=1 / interlaced=0 / bluray_compat=0 / constrained_intra=0 / bframes=8 / b_pyramid=2 / b_adapt=2 / b_bias=0 / direct=3 / weightb=1 / open_gop=0 / weightp=2 / keyint=250 / keyint_min=23 / scenecut=40 / intra_refresh=0 / rc=crf / mbtree=0 / crf=15.2 / qcomp=0.60 / qpmin=0 / qpmax=69 / qpstep=4 / ip_ratio=1.40 / pb_ratio=1.30 / aq=3:0.80
Language                                 : English
Default                                  : Yes
Forced                                   : No
Color range                              : Limited
Matrix coefficients                      : BT.709

Audio #1
ID                                       : 2
Format                                   : AC-3
Format/Info                              : Audio Coding 3
Commercial name                          : Dolby Digital
Codec ID                                 : A_AC3
Duration                                 : 1 h 45 min
Bit rate mode                            : Constant
Bit rate                                 : 192 kb/s
Channel(s)                               : 2 channels
Channel layout                           : L R
Sampling rate                            : 48.0 kHz
Frame rate                               : 31.250 FPS (1536 SPF)
Bit depth                                : 16 bits
Compression mode                         : Lossy
Stream size                              : 146 MiB (2%)
Title                                    : 2.0 | 192
Language                                 : Ukrainian
Service kind                             : Complete Main
Default                                  : Yes
Forced                                   : No

Audio #2
ID                                       : 3
Format                                   : AC-3
Format/Info                              : Audio Coding 3
Commercial name                          : Dolby Digital
Codec ID                                 : A_AC3
Duration                                 : 1 h 45 min
Bit rate mode                            : Constant
Bit rate                                 : 640 kb/s
Channel(s)                               : 6 channels
Channel layout                           : L R C LFE Ls Rs
Sampling rate                            : 48.0 kHz
Frame rate                               : 31.250 FPS (1536 SPF)
Bit depth                                : 16 bits
Compression mode                         : Lossy
Stream size                              : 485 MiB (7%)
Title                                    : 5.1 | 640
Language                                 : English
Service kind                             : Complete Main
Default                                  : No
Forced                                   : No

Text #1
ID                                       : 4
Format                                   : UTF-8
Codec ID                                 : S_TEXT/UTF8
Codec ID/Info                            : UTF-8 Plain Text
Duration                                 : 1 h 33 min
Bit rate                                 : 2 b/s
Count of elements                        : 19
Stream size                              : 1.42 KiB (0%)
Title                                    : Forced
Language                                 : Ukrainian
Default                                  : Yes
Forced                                   : No

Text #2
ID                                       : 5
Format                                   : UTF-8
Codec ID                                 : S_TEXT/UTF8
Codec ID/Info                            : UTF-8 Plain Text
Duration                                 : 1 h 39 min
Bit rate                                 : 51 b/s
Count of elements                        : 1329
Stream size                              : 37.8 KiB (0%)
Title                                    : Full
Language                                 : English
Default                                  : No
Forced                                   : No

Menu
00:00:00.000                             : en:Chapter 01
00:04:05.495                             : en:Chapter 02
00:10:55.446                             : en:Chapter 03
00:22:56.125                             : en:Chapter 04
00:29:20.884                             : en:Chapter 05
00:35:27.292                             : en:Chapter 06
00:42:17.785                             : en:Chapter 07
00:48:10.096                             : en:Chapter 08
00:55:41.129                             : en:Chapter 09
00:59:56.510                             : en:Chapter 10
01:06:03.168                             : en:Chapter 11
01:11:49.305                             : en:Chapter 12
01:19:04.406                             : en:Chapter 13
01:21:53.450                             : en:Chapter 14
01:29:26.903                             : en:Chapter 15
01:34:17.527                             : en:Chapter 16

Скріншоти






Джерело: & eneyida.tv
Особиста оцінка: 0 - не дивився






 Трекер:    Зареєстрований   

Завантажити / скачати фільм українською



відео для новачків



 Зареєстрований:   2020-09-09 22:34
 Розмір:   6.66 GB 
 Оцінка фільму:   6.6/10 (Голосів: 15)
   
Інші релізи
   Хижачка / Rogue (2020) 1080p Ukr/Eng | Sub Eng antik_2008  12 / 0   11.31 GB   2020-09-10 10:39 
   Хижачка / Rogue (2020) Remux 1080p Ukr/Eng | Sub Eng antik_2008  9 / 0   29.16 GB   2020-09-09 23:30 
   Хижачка / Rogue (2020) Ukr/Eng antik_2008  37 / 0   1.99 GB   2020-09-09 22:38 
   Хижачка / Rogue (2020) AVC Ukr/Eng | Sub Eng eneyida.tv  24 / 0   1.97 GB   2020-09-09 19:29 
qarty1 
VIP


З нами з: 01.11.09
Востаннє: 28.09.20
Повідомлень: 385

2020-09-10 11:45  
Меган Фокс пустилась берега в шлаці знімається такому з рейтингом 3
Wensun 
Поважний учасник


З нами з: 20.01.09
Востаннє: 23.09.20
Повідомлень: 180

2020-09-12 23:40  
шлак 20 хв. витерпів
extreme1987 
Новенький


З нами з: 26.08.11
Востаннє: 27.09.20
Повідомлень: 10

2020-09-19 20:26  
лайніще
Ваш часовий пояс: GMT + 2 Години

Нова тема   Відповісти