Казанова. Останнє кохання / Dernier amour (2019) 1080p Ukr/Fre

Нові коментарі

Нова тема   Відповісти
Автор Повідомлення
eneyida.tv 
Частий відвідувач


З нами з: 27.09.19
Востаннє: 20.09.20
Повідомлень: 40

2020-09-09 20:39  
Казанова. Останнє кохання / Dernier amour (2019) 1080p Ukr/Fre

Казанова. Останнє кохання / Dernier amour (2019) 1080p Ukr/Fre


Жанр: історія, мелодрама
Країна: Франція



Кінокомпанія: Les Films du Lendemain, France 3 Cinéma, Canal+, Les Films du Fleuve
Режисер: Бенуа Жако
Актори: Венсан Ліндон, Стейсі Мартін, Валерія Голіно, Джулія Рой, Ненсі Тейт, Анна Коттіс, Хейлі Кармайкл, Крістіан Еріксон, Нейтан Уіллкокс, Джесутасан Антонітасан

Сюжет:
У вісімнадцятому столітті в італійському місті Венеція народилася легендарна особистість – Джакомо Казанова. Цей чоловік прожив неймовірно яскраве життя, сповнене пригод, авантюр і зваб. Кожна жінка в його оточенні була від нього без розуму. Але час не щадить нікого, і навіть у такої харизматичної людини, як Казанова, бувають проблеми, які він не може вирішити. Через це йому довелося бігти з Парижа до зовсім чужого Лондона. Непривітний, сірий, повністю позбавлений шарму – ось враження Казанови про місто. Тут він зустрів молоду куртизанку Маріанну. Казанова хоче її досягти, але вперше він зустрів такий опір. Кожен раз, коли чоловік ось-ось отримає своє, дівчина вислизає. Звичайна зваба тут не допоможе Казанові, потрібно діяти розумом.


Тривалість: 01:34:18
Якість: 1080p
Відео:
кодек:
розмір кадру: 1912 x 792
бітрейт: 4538 кб/с

Аудіо # 1:
мова: українська
переклад: багатоголосий закадровий
кодек: 2.0
бітрейт: 192 кб/с

Аудіо # 2:
мова: французька
переклад: оригінал
кодек: 2.0
бітрейт: 127 кб/с
Info
General
Complete name : Dernier amour (2019) 1080p [Ukr, Fre] [eneyida.tv].
Format :
Format version : Version 4
File size : 3.20 GiB
Duration : 1 h 34 min
Overall bit rate : 4 859 kb/s
Movie name : Казанова. Останнє кохання / Dernier amour (2019)
Encoded date : UTC 2020-09-17 11:31:50
Writing application : v30.1.0 ('Forever And More') 64-bit
Writing library : libebml v1.3.6 + v1.4.9
Cover : Yes
Attachments : cover.jpg

Video
ID : 1
Format : AVC
Format/Info : Advanced Video Codec
Format profile : [email protected]
Format settings : CABAC / 5 Ref Frames
Format settings, CABAC : Yes
Format settings, RefFrames : 5 frames
Codec ID : V_MPEG4/ISO/AVC
Duration : 1 h 34 min
Bit rate : 4 538 kb/s
Width : 1 912 pixels
Height : 796 pixels
Display aspect ratio : 2.40:1
Frame rate mode : Constant
Frame rate : 25.000 FPS
Color space : YUV
Chroma subsampling : 4:2:0
Bit depth : 8 bits
Scan type : Progressive
Bits/(Pixel*Frame) : 0.119
Stream size : 2.99 GiB (93%)
Language : French
Default : Yes
Forced : No
Color range : Limited
Color primaries : BT.709
Transfer characteristics : BT.709
Matrix coefficients : BT.709

Audio #1
ID : 2
Format : AC-3
Format/Info : Audio Coding 3
Commercial name : Dolby Digital
Codec ID : A_AC3
Duration : 1 h 34 min
Bit rate mode : Constant
Bit rate : 192 kb/s
Channel(s) : 2 channels
Channel layout : L R
Sampling rate : 48.0 kHz
Frame rate : 31.250 FPS (1536 SPF)
Bit depth : 16 bits
Compression mode : Lossy
Stream size : 129 MiB (4%)
Title : 2.0 | 192
Language : Ukrainian
Service kind : Complete Main
Default : Yes
Forced : No

Audio #2
ID : 3
Format : LC
Format/Info : Advanced Audio Codec Low Complexity
Codec ID : A_AAC-2
Duration : 1 h 34 min
Bit rate : 127 kb/s
Channel(s) : 2 channels
Channel layout : L R
Sampling rate : 48.0 kHz
Frame rate : 46.875 FPS (1024 SPF)
Compression mode : Lossy
Delay relative to video : 171 ms
Stream size : 85.4 MiB (3%)
Title : 2.0 | 127
Language : French
Default : No
Forced : No

Menu
00:00:00.000 : en:Chapitre 01
00:09:00.000 : en:Chapitre 02
00:18:00.000 : en:Chapitre 03
00:27:00.000 : en:Chapitre 04
00:36:00.000 : en:Chapitre 05
00:45:00.000 : en:Chapitre 06
00:54:00.000 : en:Chapitre 07
01:03:00.000 : en:Chapitre 08
01:12:00.000 : en:Chapitre 09
01:21:00.000 : en:Chapitre 10
Скріншоти


Джерело: & eneyida.tv
Особиста оцінка: 0 - не дивився


 Трекер:    Зареєстрований   

Завантажити / скачати фільм українською



відео для новачків



 Зареєстрований:   2020-09-17 14:38
 Розмір:   3.2 GB 
 Оцінка фільму:   8.5/10 (Голосів: 4)
   
Інші релізи
poberezny 
Новенький


З нами з: 21.11.13
Востаннє: 23.09.20
Повідомлень: 7

2020-09-17 18:38  
«... хоче її досягти...»? - «... хоче її домогтися...»!
padalkaandrey 
VIP


З нами з: 04.09.09
Востаннє: 23.09.20
Повідомлень: 263

2020-09-20 22:42  
Планується менший розмір? Дякую.
Ваш часовий пояс: GMT + 2 Години

Нова тема   Відповісти