Утікачки (Сезон 1) / Wanted (Season 1) (2016) 720p Ukr/Eng

Нові коментарі

Нова тема   Відповісти
Автор Повідомлення
DniproFilm 
VIP


З нами з: 10.10.18
Востаннє: 24.09.20
Повідомлень: 429

2020-09-09 20:29  
Утікачки (Сезон 1) / Wanted (Season 1) (2016) 720p Ukr/Eng

Утікачки (Сезон 1) / Wanted (Season 1) (2016) 720p Ukr/Eng


Жанр: детектив, кримінал, драма
Країна: Австралія



Кінокомпанія / телеканал: Screen Australia, Seven Network, Screen Queensland
Режисер: Пітер Темплмен, Дженіфер Лісі, Роберт Саркіс
Актори/ролі озвучують: Ребекка Гібні, Джералдіна Хейквілл, Ентоні Фелан, Ніколас Белл, Стівен Пікок, Чарльз Коттье, Мирко Грілліні, Тодд Леві, Дін О'горман, Вероніка Нів, Пітер Віні та iншi

Сюжет:
Челсі і Лала - дві кращі подруги, які абсолютно випадково стали свідками злочину, а саме - пограбування банку. І хто б міг подумати, що вирішивши втрутитися, вони самі накликають на себе справжню біду. Під час розмови зі злочинцем, дівчата не помічають, як несподівано він сам пускає собі кулю в лоб, ненавмисно, а може і ні ... Але як би там не було, дівчата опиняються в заплутаному положенні, вони сідають у відкриту машину, яка наповнена величезною сумою грошей і тікають від погоні. Зупинившись і віддихавшись, вони абсолютно не розуміють як тепер бути і що робити? Чому їх свідомість вирішила зіграти з ними такий злий жарт. Але тепер нічого не зміниш і не виправиш і тоді дівчатам доводиться шукати вихід із ситуації і всіма силами придумувати план по якому вони змогли б реабілітуватися...

Тривалість: 1 серія: ~ 45 хв. (цілком серій: 6)
Перелік серій

01. Chelsea and Lola
02. Run Lola Run
03. Us and Them
04. Badlands
05. Detour
06. Dead End
Якість:
Відео:
кодек:
розмір кадру: 1280x720
бітрейт: ~4000 кб/с

Аудіо # 1:
мова: українська
переклад: багатоголосий закадровий | DniproFilm
кодек: 2.0
бітрейт: 192 кб/с

Аудіо # 2:
мова: англійська
переклад: оригінал
кодек: 2.0
бітрейт: 384 кб/с
Info
Код:

Video
ID                          : 1
Format                      : AVC
Format/Info                 : Advanced Video Codec
Format profile              : [email protected]
Format settings             : CABAC / 4 Ref Frames
Format settings, CABAC      : Yes
Format settings, Reference  : 4 frames
Codec ID                    : V_MPEG4/ISO/AVC
Duration                    : 44 min 0 s
Bit rate                    : 3 864 kb/s
Width                       : 1 280 pixels
Height                      : 720 pixels
Display aspect ratio        : 16:9
Frame rate mode             : Constant
Frame rate                  : 25.000 FPS
Color space                 : YUV
Chroma subsampling          : 4:2:0
Bit depth                   : 8 bits
Scan type                   : Progressive
Bits/(Pixel*Frame)          : 0.168
Stream size                 : 1.19 GiB (87%)
Language                    : English
Default                     : Yes
Forced                      : No
Color range                 : Limited
Color primaries             : BT.709
Transfer characteristics    : BT.709
Matrix coefficients         : BT.709

Audio #1
ID                          : 2
Format                      : AC-3
Format/Info                 : Audio Coding 3
Commercial name             : Dolby Digital
Codec ID                    : A_AC3
Duration                    : 44 min 0 s
Bit rate mode               : Constant
Bit rate                    : 192 kb/s
Channel(s)                  : 2 channels
Channel layout              : L R
Sampling rate               : 48.0 kHz
Frame rate                  : 31.250 FPS (1536 SPF)
Compression mode            : Lossy
Stream size                 : 60.4 MiB (4%)
Title                       : DniproFilm
Language                    : Ukrainian
Service kind                : Complete Main
Default                     : Yes
Forced                      : No

Audio #2
ID                          : 3
Format                      : AC-3
Format/Info                 : Audio Coding 3
Commercial name             : Dolby Digital
Codec ID                    : A_AC3
Duration                    : 44 min 0 s
Bit rate mode               : Constant
Bit rate                    : 384 kb/s
Channel(s)                  : 2 channels
Channel layout              : L R
Sampling rate               : 48.0 kHz
Frame rate                  : 31.250 FPS (1536 SPF)
Compression mode            : Lossy
Stream size                 : 121 MiB (9%)
Language                    : English
Service kind                : Complete Main
Default                     : No
Forced                      : No
Скріншоти


Джерело озвучення: DniproFilm


Авторський реліз (завантажувати можна без реєстрації)
 Трекер:    Зареєстрований   

Завантажити / скачати серіал українською



відео для новачків



 Зареєстрований:   2020-09-09 20:29
 Розмір:   8.23 GB 
 Оцінка серіалу:   10/10 (Голосів: 5)
   
Ваш часовий пояс: GMT + 2 Години

Нова тема   Відповісти