Михаел Колгас / Michael Kohlhaas (2013) AVC Ukr/Fra | Sub Ukr/Fra

Нові коментарі

Нова тема   Відповісти
Автор Повідомлення
ArtymKo 
Частий відвідувач


З нами з: 14.01.20
Востаннє: 25.09.20
Повідомлень: 27

2020-09-09 19:11  
Михаел Колгас / Michael Kohlhaas (2013) AVC Ukr/Fra | Sub Ukr/Fra

Михаел Колгас / Michael Kohlhaas (2013) AVC Ukr/Fra | Sub Ukr/Fra


Жанр: драма, історичний
Країна: Франція, Німеччина



Кінокомпанія: Les Films d'Ici, LOOKSfilm, Hérodiade
Режисер: Арно де Палєр
Актори: Мас Микелсен, Мелизин Маянс, Делфин Швийо, Давид Крос, Бруно Ґанц

Сюжет:
У XVI ст. в Севеннських горах коняр Михаел Колгас веде щасливе сімейне життя. Коли ж землевласник несправедливо з ним повівся, завдав шкоди й уникнув покарання, коняр збирає власне військо та розпочинає усобицю, щоб добитися правосуддя.

Фільм заснований на однойменній повісті Гайнриха фон Клайста, що переповідає історію справжнього повстання купця Ганса Колгазе.


Вікова категорія: 16+
Трейлер французькою
Тривалість: 02:01:26
Відео: AVC
кодек:
розмір кадру: 1136 х 480
бітрейт: 1190 кб/с

Аудіо # 1:
мова: українська
переклад: багатоголосий закадровий (ArtymKo)
кодек: 2.0
бітрейт: 319 кб/с

Аудіо # 2:
мова: французька
переклад: оригінал
кодек: 2.0
бітрейт: 128 кб/с

Субтитри # 1:
мова: українська (написи)
тип: програмні (м'які)
формат: *.

Субтитри # 2:
мова: українська (повні)
тип: програмні (м'які)
формат: *.

Субтитри # 3:
мова: французька
тип: програмні (м'які)
формат: *.
Info
General
Unique ID : 126873258707919681287097976408429160961 (0x5F72E69B6717C125A26B821C4C85EA01)
Complete name : D:\Films\Михаел Колгас\Michael Kohlhaas (2013) [Ukr, Fra] [ArtymKo].
Format :
Format version : Version 4
File size : 1.39 GiB
Duration : 2 h 1 min
Overall bit rate : 1 641 kb/s
Movie name : Michael Kohlhaas (2013) [ArtymKo]
Encoded date : UTC 2020-09-09 14:20:52
Writing application : v42.0.0 ('Overtime') 64-bit
Writing library : libebml v1.3.10 + v1.5.2
Cover : Yes
Attachments : cover.jpg

Video
ID : 1
Format : AVC
Format/Info : Advanced Video Codec
Format profile : [email protected]
Format settings : CABAC / 2 Ref Frames
Format settings, CABAC : Yes
Format settings, Reference : 2 frames
Codec ID : V_MPEG4/ISO/AVC
Duration : 2 h 1 min
Bit rate : 1 190 kb/s
Width : 1 136 pixels
Height : 480 pixels
Display aspect ratio : 2.35:1
Frame rate mode : Constant
Frame rate : 23.976 (23976/1000) FPS
Color space : YUV
Chroma subsampling : 4:2:0
Bit depth : 8 bits
Scan type : Progressive
Bits/(Pixel*Frame) : 0.091
Stream size : 1.01 GiB (73%)
Language : French
Default : Yes
Forced : No

Audio #1
ID : 2
Format : LC
Format/Info : Advanced Audio Codec Low Complexity
Codec ID : A_AAC-2
Duration : 2 h 1 min
Bit rate : 319 kb/s
Channel(s) : 2 channels
Channel layout : L R
Sampling rate : 48.0 kHz
Frame rate : 46.875 FPS (1024 SPF)
Compression mode : Lossy
Stream size : 277 MiB (19%)
Title : ArtymKo
Language : Ukrainian
Default : Yes
Forced : Yes

Audio #2
ID : 3
Format : LC
Format/Info : Advanced Audio Codec Low Complexity
Codec ID : A_AAC-2
Duration : 2 h 1 min
Bit rate : 128 kb/s
Channel(s) : 2 channels
Channel layout : L R
Sampling rate : 44.1 kHz
Frame rate : 43.066 FPS (1024 SPF)
Compression mode : Lossy
Stream size : 112 MiB (8%)
Title : Original
Language : French
Default : No
Forced : No

Text #1
ID : 4
Format :
Codec ID : S_TEXT/
Codec ID/Info : Advanced Sub Station Alpha
Duration : 1 h 53 min
Bit rate : 0 b/s
Count of elements : 6
Compression mode : Lossless
Stream size : 689 Bytes (0%)
Title : Написи (ArtymKo)
Language : Ukrainian
Default : Yes
Forced : Yes

Text #2
ID : 5
Format :
Codec ID : S_TEXT/
Codec ID/Info : Advanced Sub Station Alpha
Duration : 1 h 56 min
Bit rate : 41 b/s
Count of elements : 552
Compression mode : Lossless
Stream size : 35.1 KiB (0%)
Title : Повні (ArtymKo)
Language : Ukrainian
Default : No
Forced : No

Text #3
ID : 6
Format :
Codec ID : S_TEXT/
Codec ID/Info : Advanced Sub Station Alpha
Duration : 2 h 1 min
Bit rate : 32 b/s
Count of elements : 601
Compression mode : Lossless
Stream size : 28.7 KiB (0%)
Title : Французькі
Language : French
Default : No
Forced : No
Знімки екрана



Реліз: Команда озвучення «ArtymKo» за фінансової підтримки доброчинців
Переклад: Mormor
Ролі озвучили: Artymko, Bitari (AniUA), Lomaev (MelodicVoiceStudio), Vasyl T
Робота зі звуком: Vasyl T, KohinSan
Підтримати команду можна за посиланням на цю сторінку.
________________
Збір коштів на озвучення
Замовити озвучення
Telegram


Особиста оцінка: 8 - мені сподобалося


Авторський реліз (завантажувати можна без реєстрації)
 Трекер:    Зареєстрований   

Завантажити / скачати фільм українською



відео для новачків



 Зареєстрований:   2020-09-09 19:11
 Розмір:   1.39 GB 
 Оцінка фільму:   8.6/10 (Голосів: 9)
   
Інші релізи
Ваш часовий пояс: GMT + 2 Години

Нова тема   Відповісти