Мулан / Mulan (2020) 1080p 2xUkr/Eng | Sub Ukr/Eng

Нові коментарі

Нова тема   Відповісти
Автор Повідомлення
Neo_Men 
Свій


З нами з: 21.11.15
Востаннє: 27.10.20
Повідомлень: 139

2020-09-09 16:41  
Мулан / Mulan (2020) 1080p 2xUkr/Eng | Sub Ukr/Eng

Мулан / Mulan (2020) 1080p 2xUkr/Eng | Sub Ukr/Eng


Жанр: драма, пригоди, сімейний, фентезі, екшн
Країна: США, Канада, Гонконг



Кінокомпанія: Walt Disney Pictures
Режисер: Нікі Каро
Актори: Іфей Лю, Донні Єн, Ґун Лі, Джет Лі, Джейсон Скотт Лі, Йосон Ан, Ма Ці, Розалінд Чао, Рон Юань, Джан Ю

Сюжет:
Для Китайської імперії настали темні часи. Із півночі на країну наступає грізне військо нещадних загарбників, які жадають крові невинних людей. Імператор видав указ, що кожна сім'я повинна дати одного чоловіка для захисту країни. Хуа завжди був хоробрим воїном, але зараз на старості років, його долають хвороби. Але він єдиний чоловік у своїй родині, Бог нагородив його двома дочками. Мулан, старша з них, завжди відрізнялася від своїх одноліток. Рішуча, смілива та спритна дівчина не може відпустити батька на вірну смерть – вона сама піде до війська, прикинувшись хлопцем. Це буде складний шлях для дівчини, який зробить її одним із найбільших воїнів у історії Китаю.


Тривалість: 01:55:08
Якість: 1080p
Відео:
кодек:
розмір кадру: 1920 x 1080
бітрейт: 18,4 Mб/с

Аудіо # 1:
мова: українська
переклад: професійний дубльований
кодек: 2.0
бітрейт: 192 кб/с

Аудіо # 2:
мова: українська
переклад: одноголосий закадровий | В одне рило
кодек: 2.0
бітрейт: 192 кб/с

Аудіо # 3:
мова: англійська
переклад: оригінал
кодек: 5.1
бітрейт: 640 кб/с

Субтитри # 1:
мова: українська
тип: програмні (м'які)
формат: *.srt

Субтитри # 2:
мова: англійська
тип: програмні (м'які)
формат: *.srt

Дякую eneyida.tv за дубльовану доріжку
Info
Код:
General
Unique ID                                : 177608503781317208749794035409037304678 (0x859E27511608B36689C45C88E5542366)
Complete name                            : Mulan (2020) 1080p [Ukr_Eng] [Hurtom].
Format                                   :
Format version                           : Version 4
File size                                : 15.6 GiB
Duration                                 : 1 h 55 min
Overall bit rate mode                    : Variable
Overall bit rate                         : 19.4 Mb/s
Movie name                               : Мулан / Mulan (2020)
Encoded date                             : UTC 2020-10-13 14:50:06
Writing application                      : v8.3.0 ('Over the Horizon') 64bit
Writing library                          : libebml v1.3.1 + v1.4.2
Cover                                    : Yes
Attachments                              : Cover.jpg

Video
ID                                       : 1
Format                                   : AVC
Format/Info                              : Advanced Video Codec
Format profile                           : [email protected]
Format settings                          : CABAC / 4 Ref Frames
Format settings, CABAC                   : Yes
Format settings, ReFrames                : 4 frames
Codec ID                                 : V_MPEG4/ISO/AVC
Duration                                 : 1 h 55 min
Bit rate mode                            : Variable
Bit rate                                 : 18.4 Mb/s
Maximum bit rate                         : 64.0 Mb/s
Width                                    : 1 920 pixels
Height                                   : 1 080 pixels
Display aspect ratio                     : 16:9
Frame rate mode                          : Constant
Frame rate                               : 23.976 (24000/1001) FPS
Color space                              : YUV
Chroma subsampling                       : 4:2:0
Bit depth                                : 8 bits
Scan type                                : Progressive
Bits/(Pixel*Frame)                       : 0.370
Stream size                              : 14.8 GiB (95%)
Language                                 : English
Default                                  : Yes
Forced                                   : No
Color range                              : Limited
Color primaries                          : BT.709
Transfer characteristics                 : BT.709
Matrix coefficients                      : BT.709

Audio #1
ID                                       : 2
Format                                   : AC-3
Format/Info                              : Audio Coding 3
Commercial name                          : Dolby Digital
Codec ID                                 : A_AC3
Duration                                 : 1 h 55 min
Bit rate mode                            : Constant
Bit rate                                 : 192 kb/s
Channel(s)                               : 2 channels
Channel layout                           : L R
Sampling rate                            : 48.0 kHz
Frame rate                               : 31.250 FPS (1536 SPF)
Bit depth                                : 16 bits
Compression mode                         : Lossy
Stream size                              : 158 MiB (1%)
Title                                    : DUB [Line]
Language                                 : Ukrainian
Service kind                             : Complete Main
Default                                  : Yes
Forced                                   : No

Audio #2
ID                                       : 3
Format                                   : AC-3
Format/Info                              : Audio Coding 3
Commercial name                          : Dolby Digital
Codec ID                                 : A_AC3
Duration                                 : 1 h 55 min
Bit rate mode                            : Constant
Bit rate                                 : 192 kb/s
Channel(s)                               : 2 channels
Channel layout                           : L R
Sampling rate                            : 48.0 kHz
Frame rate                               : 31.250 FPS (1536 SPF)
Bit depth                                : 16 bits
Compression mode                         : Lossy
Stream size                              : 158 MiB (1%)
Title                                    : В одне рило
Language                                 : Ukrainian
Service kind                             : Complete Main
Default                                  : No
Forced                                   : No

Audio #3
ID                                       : 4
Format                                   : AC-3
Format/Info                              : Audio Coding 3
Commercial name                          : Dolby Digital
Codec ID                                 : A_AC3
Duration                                 : 1 h 55 min
Bit rate mode                            : Constant
Bit rate                                 : 640 kb/s
Channel(s)                               : 6 channels
Channel layout                           : L R C LFE Ls Rs
Sampling rate                            : 48.0 kHz
Frame rate                               : 31.250 FPS (1536 SPF)
Bit depth                                : 16 bits
Compression mode                         : Lossy
Stream size                              : 527 MiB (3%)
Language                                 : English
Service kind                             : Complete Main
Default                                  : No
Forced                                   : No

Text #1
ID                                       : 5
Format                                   : UTF-8
Codec ID                                 : S_TEXT/UTF8
Codec ID/Info                            : UTF-8 Plain Text
Duration                                 : 1 h 43 min
Bit rate                                 : 50 b/s
Count of elements                        : 848
Stream size                              : 38.2 KiB (0%)
Title                                    : Full
Language                                 : Ukrainian
Default                                  : No
Forced                                   : No

Text #2
ID                                       : 6
Format                                   : UTF-8
Codec ID                                 : S_TEXT/UTF8
Codec ID/Info                            : UTF-8 Plain Text
Duration                                 : 1 h 50 min
Bit rate                                 : 35 b/s
Count of elements                        : 1150
Stream size                              : 28.5 KiB (0%)
Title                                    : Full
Language                                 : English
Default                                  : No
Forced                                   : No
Скріншоти





Джерело:


Авторський реліз (завантажувати можна без реєстрації)
 Трекер:    Зареєстрований   

Завантажити / скачати фільм українською



відео для новачків



 Зареєстрований:   2020-10-13 16:55
 Розмір:   15.64 GB 
 Оцінка фільму:   8.4/10 (Голосів: 29)
   
Інші релізи
   Мулан / Mulan (2020) UHD 2160p 4K HDR H.265 2xUkr/Eng | Sub Ukr/Eng Neo_Men  24 / 0   13.74 GB   2020-10-13 16:26 
   Мулан / Mulan (2020) 720p 2xUkr/Eng | Sub Ukr/Eng igor911  32 / 0   4.24 GB   2020-10-13 15:44 
   Мулан / Mulan (2020) AVC 2xUkr/Eng | Sub Ukr/Eng eneyida.tv  87 / 0   2.22 GB   2020-10-13 15:17 
   Мулан / Mulan (2020) Ukr/Eng | Sub Ukr/Eng Done56  80 / 0   1.61 GB   2020-09-08 15:51 
   Мулан / Mulan (2020) Eng | sub Ukr killer2015  14 / 0   1.46 GB   2020-09-06 13:37 
antik_2008 
Релізер і модератор відео


З нами з: 20.10.08
Востаннє: 27.10.20
Повідомлень: 4207

2020-09-09 18:09  
Neo_Men 720p чекати від вас?
Neo_Men 
Свій


З нами з: 21.11.15
Востаннє: 27.10.20
Повідомлень: 139

2020-09-09 18:31  
antik_2008 Гаразд, буде ,почекайте ..
P/s - 720p

Volodya_S 
VIP


З нами з: 04.02.11
Востаннє: 26.10.20
Повідомлень: 255

2020-09-15 22:52  
а коли очікувати багатоголоску?
Gybalj 
Свій


З нами з: 14.05.09
Востаннє: 26.10.20
Повідомлень: 81

2020-10-07 10:32  
Шкода - "одноголосий закадровий | В одне рило" - буду качати з російським багатоголосим закадровим перекладом.
21jumpstreet 
VIP


З нами з: 03.07.12
Востаннє: 27.10.20
Повідомлень: 1345

2020-10-07 10:49  
Краще зачекати на дубляж.
ExorcistZp 
VIP


З нами з: 23.09.14
Востаннє: 27.10.20
Повідомлень: 298

2020-10-07 11:09  
Gybalj написано:
буду качати з російським багатоголосим закадровим перекладом


Це погроза? Happy

21jumpstreet написано:
Краще зачекати на дубляж.


Насправді озвучка дуже якісна, навіть не звертаєш уваги, що одноголосий.

21jumpstreet 
VIP


З нами з: 03.07.12
Востаннє: 27.10.20
Повідомлень: 1345

2020-10-07 11:11  
ExorcistZp
Я маю на увазі, щоб був дубляж з itunes. Гадаю він буде. Все таки вони випускають доріжки.

Electroz 
Відео Гуртом - підтримка та поширення
Відео Гуртом - підтримка та поширення


З нами з: 18.09.14
Востаннє: 27.10.20
Повідомлень: 4144

2020-10-07 11:16  
21jumpstreet написано:
Краще зачекати на дубляж.

На енеїді він вже давно є.

21jumpstreet 
VIP


З нами з: 03.07.12
Востаннє: 27.10.20
Повідомлень: 1345

2020-10-07 11:18  
Electroz
Не в курсі я, дякую за інформацію.

Капiтан Прайс 
Новенький


З нами з: 13.02.16
Востаннє: 26.10.20
Повідомлень: 4

2020-10-10 18:44  
Electroz написано:
На енеїді

вибачте, це де саме?))

Neo_Men 
Свій


З нами з: 21.11.15
Востаннє: 27.10.20
Повідомлень: 139

2020-10-13 16:57  
13.10.2020 Додано дубльовану доріжку
Alex Zab4ik 
Новенький


З нами з: 23.12.19
Востаннє: 24.10.20
Повідомлень: 5

2020-10-17 16:17  
Капiтан Прайс написано:
вибачте, це де саме?))

Це ось тут)
https://eneyida.tv/

Ваш часовий пояс: GMT + 2 Години

Нова тема   Відповісти